Ссылка на приватное зеркало нашего сайта всего за 1$. Внимание количество ограничено!!!

2 сезон

iTunes

1 сезон

1

iTunes

iTunes

iTunes

1 сезон

RePack

30

ИГРА 18+

pack

ВАЖНО

!!Акция!!

Alien_RageХит недели

RePack

MK11
pack

Забери бонус

RePack

jed

!!Акция!!

Alien_Rage

RePack

fifa19

RePack

Assassins Creed: Odyssey

RePack

NEED FOR SPEED™ PAYBACK

4 сезон

9 сезон

Бесстыжие 9 сезон

Все сериалы

все сериалы на PB.wtf

RePack

FAR CRY 5
  

Не будем ссориться / Ne nous fâchons pas (Жорж Лотнер) [1966, комедия, криминал, BDRip 1080p by msltel] MVO piratbit.org

Не будем ссориться через торрент piratbit.org

Размер: 9.43 GB | Добавлен: 11 мес. назад | Торрент скачан:1 раз
Скачать  

02-11-2019 07:13 Не будем ссориться Скачать торрент  

Название: Не будем ссориться
Оригинальное название: Ne nous fâchons pas
Год выпуска: 1966
Страна: Франция
Жанр: комедия, криминал
Продолжительность: 01:40:07
Перевод: профессиональный многоголосый

Режиссер: Жорж Лотнер
В ролях: Лино Вентура, Мирей Дарк, Жан Лефевр, Мишель Константен, Сильвия Сорренте, Тьерри Тибо, Марсель Бернье, Мик Бессон, Франс Румилли, Андре Пусс

О фильме: Чтобы помочь начинающим воришкам, гангстер-профессионал Антонио Беретто возвращается из заслуженного отдыха и снова принимается за старое. В итоге, юные компаньоны втягивают его в войну за большие деньги с бандой лихих мотоциклистов...



Качество: BDRip 1080p
Формат: MKV
Видео: MPEG-4 AVC, 12.5 Mбит/с, 1920x816
Аудио 1: русский, AC3, 192 kbps, 2 ch, 48 kHz [закадровый многоголосый, Имидж-Арт]
Аудио 2: французский, DTS, 768 kbps, 1 ch, 48 kHz [оригинал]
Субтитры: французские
Главы/чаптеры
Общее
Уникальный идентификатор : 240037029070206328448915911122719793802 (0xB49573409F462E8A99DE8B14A58AE28A)
Полное имя : D:\Video\Не будем ссориться.1966.BDRip 1080p by msltel.mkv
Формат : Matroska
Версия формата : Version 4
Размер файла : 9,43 Гбайт
Продолжительность : 1 ч. 40 м.
Общий поток : 13,5 Мбит/сек
Название фильма : Rip by msltel
Дата кодирования : UTC 2019-11-02 02:34:36
Программа кодирования : mkvmerge v8.2.0 ('World of Adventure') 64bit
Библиотека кодирования : libebml v1.3.1 + libmatroska v1.4.2

Видео
Идентификатор : 1
Формат : AVC
Формат/Информация : Advanced Video Codec
Профиль формата : High@L4.1
Настройки формата : CABAC / 4 Ref Frames
Параметр CABAC формата : Да
Параметр RefFrames формата : 4 кадра
Идентификатор кодека : V_MPEG4/ISO/AVC
Продолжительность : 1 ч. 40 м.
Битрейт : 12,5 Мбит/сек
Ширина : 1920 пикселей
Высота : 816 пикселей
Соотношение сторон : 2,35:1
Режим частоты кадров : Постоянный
Частота кадров : 23,976 (24000/1001) кадра/сек
Цветовое пространство : YUV
Субдискретизация насыщенности : 4:2:0
Битовая глубина : 8 бит
Тип развёртки : Прогрессивная
Бит/(Пиксели*Кадры) : 0.333
Размер потока : 8,75 Гбайт (93%)
Библиотека кодирования : x264 core 157 r2935 545de2f
Настройки программы : cabac=1 / ref=4 / deblock=1:-2:-2 / analyse=0x3:0x113 / me=umh / subme=11 / psy=1 / psy_rd=1.00:0.15 / mixed_ref=1 / me_range=32 / chroma_me=1 / trellis=2 / 8x8dct=1 / cqm=0 / deadzone=21,11 / fast_pskip=0 / chroma_qp_offset=-3 / threads=6 / lookahead_threads=1 / sliced_threads=0 / nr=0 / decimate=1 / interlaced=0 / bluray_compat=0 / constrained_intra=0 / bframes=10 / b_pyramid=2 / b_adapt=2 / b_bias=0 / direct=1 / weightb=1 / open_gop=0 / weightp=2 / keyint=230 / keyint_min=23 / scenecut=40 / intra_refresh=0 / rc_lookahead=40 / rc=crf / mbtree=1 / crf=18.5 / qcomp=0.60 / qpmin=0 / qpmax=69 / qpstep=4 / vbv_maxrate=50000 / vbv_bufsize=62500 / crf_max=0.0 / nal_hrd=none / filler=0 / ip_ratio=1.40 / aq=1:1.00
Язык : French
Default : Да
Forced : Нет

Аудио #1
Идентификатор : 2
Формат : AC-3
Формат/Информация : Audio Coding 3
Коммерческое название : Dolby Digital
Идентификатор кодека : A_AC3
Продолжительность : 1 ч. 40 м.
Вид битрейта : Постоянный
Битрейт : 192 Кбит/сек
Каналы : 2 канала
ChannelLayout : L R
Частота : 48,0 КГц
Частота кадров : 31,250 кадров/сек (1536 SPF)
Метод сжатия : С потерями
Размер потока : 138 Мбайт (1%)
Заголовок : MVO Имидж-Арт
Язык : Russian
ServiceKind/String : Complete Main
Default : Да
Forced : Нет

Аудио #2
Идентификатор : 3
Формат : DTS
Формат/Информация : Digital Theater Systems
Идентификатор кодека : A_DTS
Продолжительность : 1 ч. 40 м.
Вид битрейта : Постоянный
Битрейт : 768 Кбит/сек
Каналы : 1 канал
ChannelLayout : C
Частота : 48,0 КГц
Частота кадров : 93,750 кадра/сек (512 SPF)
Битовая глубина : 24 бит
Метод сжатия : С потерями
Размер потока : 550 Мбайт (6%)
Заголовок : original
Язык : French
Default : Нет
Forced : Нет

Текст
Идентификатор : 4
Формат : UTF-8
Идентификатор кодека : S_TEXT/UTF8
Идентификатор кодека/Информация : UTF-8 Plain Text
Продолжительность : 1 ч. 39 м.
Битрейт : 44 бит/сек
ElementCount : 1268
Размер потока : 32,2 Кбайт (0%)
Заголовок : французские
Язык : French
Default : Нет
Forced : Нет

Меню
00:00:00.000 : :Chapter 1
00:04:01.949 : :Chapter 2
00:12:52.354 : :Chapter 3
00:22:19.962 : :Chapter 4
00:35:37.635 : :Chapter 5
00:49:34.679 : :Chapter 6
00:57:08.967 : :Chapter 7
01:05:05.525 : :Chapter 8
01:11:31.537 : :Chapter 9
01:18:01.926 : :Chapter 10
01:22:20.143 : :Chapter 11
01:32:56.820 : :Chapter 12
01:40:07.333 : :Chapter 13
piratbit.org



Скачать Не будем ссориться через торрент https://a.radikal.ru/a14/1911/2e/83d2be89ed56.png Скачать фильм Не будем ссориться через торрент бесплантно в хорошем качестве О фильме: Чтобы помочь начинающим воришкам, гангстер-профессионал Антонио Беретто возвращается из заслуженного отдыха и снова принимается ... 10 10 1
Торрент: Зарегистрирован [2019-11-02 07:13] · скачан: 1 раз
Статус: √ проверено
Размер: 9.43 GB
Как cкачать? Как скачать Не будем ссориться через торрент | qTorrent

% Раздел Тема Автор DL S | L
Классика зарубежного кино [ 3.74 GB ] Не будем ссориться / Ne nous fâchons pas [1966 BDRip 720p by msltel] MVO msltel Скачать
1 | 0

28-11-2019 20:33  

Отключить всю рекламу на сайте

    Дорогой пользователь! Огромная просьба, поблагодарите релизера, оцените раздачу и оставьте свои комментарий, если Вы скачали Не будем ссориться через торрент бесплатно! Внесите свою лепту в развитие PiratBit!
    Комментировать посты могут только пользователи прошедшие не сложную регистрацию
    Показать сообщения:    

    Не будем ссориться через торрент
    Скачать бесплатно Не будем ссориться
    Не будем ссориться скачать торрент
    Не будем ссориться смотреть онлайн
    Cкачать фильм Не будем ссориться бесплатно
    Не будем ссориться скачать торрент в хорошем качестве
    Не будем ссориться смотреть онлайн бесплатно в хорошем качестве


    Вы не можете начинать темы
    Вы не можете отвечать на сообщения
    Вы не можете редактировать свои сообщения
    Вы не можете удалять свои сообщения
    Вы не можете голосовать в опросах
    Вы не можете прикреплять файлы к сообщениям
    Вы можете скачивать файлы