Достать ножи: Стеклянная луковица

MVO

Добыча

Дубляж

Уэнсдэй

1 сезон

Тор

Дубляж

13 клиническая

1 сезон

Жестокая ночь

MVO

Одни из нас

1 сезон

Deluxe

pack

Рекомендуем

30

Пиратка

ВАЖНО

ВАЖНО

Ghostwire

Пиратка

jed

RePack

nioh2

RePack

RDR2

RePack

NEED FOR SPEED™ PAYBACK

RePack

скачать торрент

Кинопоиск HD

Острые козырьки 6 сезон

6 сезон

FAR CRY 6

RePack

скачать торрент

Лицензия

скачать торрент

MVO

1

1 сезон

скачать торрент

1 сезон

скачать торрент

Лицензия

  

Лицо со шрамом / Scarface (Брайан Де Пальма) [1983, драма, криминал, UHD Blu-ray EUR 2160p] MVO [Лицензия]

Лицо со шрамом через торрент piratbit.org

Размер: 87.5 GB | Добавлен: 3 года 3 мес. назад | Торрент скачан:18 раз
Смотреть онлайн | Скачать | Поддержите нас   

02-11-2019 10:56 Лицо со шрамом Скачать торрент  

Лицо со шрамом / Scarface««The World Is Yours»»

Год выпуска: 1983
Страна: США
Жанр: драма, криминал
Продолжительность: 02:49:51
Перевод: Профессиональный многоголосый [Лицензия]
Субтитры: Русские, английские, французские, чешские, греческие, венгерские, польские, румынские, финские, норвежские, датские, голландские, шведские
Режиссер: Брайан Де Пальма
В ролях:

Аль Пачино (Tony Montana), Стивен Бауэр (Manny Ribera), Мишель Пфайффер (Elvira), Мэри Элизабет Мастрантонио (Gina), Роберт Лоджа (Frank Lopez), Мириам Колон (Mama Montana), Ф. Мюррэй Абрахам (Omar), Пол Шенар (Alejandro Sosa), Харрис Юлин (Bernstein), Анхель Саласар (Chi Chi), Арнальдо Сантана (Ernie), Пепе Серна (Angel)
Описание:
Весной 1980 года был открыт порт Мэйриэл Харбор, и тысячи кубинских беженцев ринулись в Соединенные Штаты на поиски Американской Мечты. Один из них нашел ее на залитых солнцем улицах Майами. Богатство, Влacть и страсть превзошли даже самые невероятные его мечты. Его звали Тони Монтана. Мир запомнил его под другим именем - «Лицо со шрамом»...
Рейтинг:

MPAA: R - Лицам до 17 лет обязательно присутствие взрослого
Качество: UHD Blu-ray EUR 2160p
Формат: BDMV
Видео: MPEG-H HEVC Video 52344 kbps 2160p / 23.976 fps / 16:9 / Main 10 @ Level 5.1 @ High / 10 bits / HDR10 / BT.2020

Аудио:
DTS:X Master Audio English 5793 kbps 7.1 / 48 kHz / 5793 kbps / 24-bit (DTS Core: 5.1 / 48 kHz / 1509 kbps / 24-bit)
DTS Audio English 768 kbps 2.0 / 48 kHz / 768 kbps / 24-bit
DTS Audio French 448 kbps 2.0 / 48 kHz / 448 kbps / 24-bit
DTS Audio Russian 448 kbps 2.0 / 48 kHz / 448 kbps / 24-bit
DTS Audio Czech 448 kbps 2.0 / 48 kHz / 448 kbps / 24-bit
DTS Audio Hungarian 448 kbps 2.0 / 48 kHz / 448 kbps / 24-bit
DTS Audio Polish 448 kbps 2.0 / 48 kHz / 448 kbps / 24-bit

Disc Title: Scarface
Disc Label: Scarface.1983.MULTI.COMPLETE.UHD.BLURAY-GLiMMER
Disc Size: 93,948,302,770 bytes
Protection: AACS2
Extras: Ultra HD, BD-Java
BDInfo: 0.7.5.5

Notes:

BDINFO HOME:
Cinema Squid (old)
http://www.cinemasquid.com/blu-ray/tools/bdinfo
UniqProject GitHub (new)
https://github.com/UniqProject/BDInfo

INCLUDES FORUMS REPORT FOR:
AVS Forum Blu-ray Audio and Video Specifications Thread
http://www.avsforum.com/avs-vb/showthread.php?t=1155731

********************
PLAYLIST: 00800.MPLS
********************

<--- BEGIN FORUMS PASTE --->

Total Video
Title Codec Length Movie Size Disc Size Bitrate Bitrate Main Audio Track Secondary Audio Track
----- ------ ------- -------------- -------------- ------- ------- ------------------ ---------------------
00800.MPLS HEVC 2:49:51 83,047,190,400 93,948,302,770 65.19 52.34 DTS:X Master 7.1 5793Kbps (48kHz/24-bit) DTS 2.0 768Kbps (48kHz/24-bit)

DISC INFO:

Disc Title: Scarface
Disc Label: Scarface.1983.MULTI.COMPLETE.UHD.BLURAY-GLiMMER
Disc Size: 93,948,302,770 bytes
Protection: AACS2
Extras: Ultra HD, BD-Java
BDInfo: 0.7.5.5

PLAYLIST REPORT:

Name: 00800.MPLS
Length: 2:49:51.431 (h:m:s.ms)
Size: 83,047,190,400 bytes
Total Bitrate: 65.19 Mbps

VIDEO:

Codec Bitrate Description
----- ------- -----------
MPEG-H HEVC Video 52344 kbps 2160p / 23.976 fps / 16:9 / Main 10 @ Level 5.1 @ High / 10 bits / HDR10 / BT.2020

AUDIO:

Codec Language Bitrate Description
----- -------- ------- -----------
DTS:X Master Audio English 5793 kbps 7.1 / 48 kHz / 5793 kbps / 24-bit (DTS Core: 5.1 / 48 kHz / 1509 kbps / 24-bit)
DTS Audio English 768 kbps 2.0 / 48 kHz / 768 kbps / 24-bit
DTS Audio French 448 kbps 2.0 / 48 kHz / 448 kbps / 24-bit
DTS Audio Russian 448 kbps 2.0 / 48 kHz / 448 kbps / 24-bit
DTS Audio Czech 448 kbps 2.0 / 48 kHz / 448 kbps / 24-bit
DTS Audio Hungarian 448 kbps 2.0 / 48 kHz / 448 kbps / 24-bit
DTS Audio Polish 448 kbps 2.0 / 48 kHz / 448 kbps / 24-bit

SUBTITLES:

Codec Language Bitrate Description
----- -------- ------- -----------
Presentation Graphics English 38.153 kbps
Presentation Graphics French 31.877 kbps
Presentation Graphics Dutch 33.014 kbps
Presentation Graphics Danish 29.640 kbps
Presentation Graphics Finnish 31.907 kbps
Presentation Graphics Norwegian 32.032 kbps
Presentation Graphics Swedish 28.907 kbps
Presentation Graphics Russian 33.863 kbps
Presentation Graphics Czech 29.705 kbps
Presentation Graphics Hungarian 34.406 kbps
Presentation Graphics Polish 32.948 kbps
Presentation Graphics Greek 33.974 kbps
Presentation Graphics Romanian 27.994 kbps
Presentation Graphics English 0.745 kbps
Presentation Graphics French 0.792 kbps
Presentation Graphics Czech 0.345 kbps
Presentation Graphics Hungarian 0.151 kbps

FILES:

Name Time In Length Size Total Bitrate
---- ------- ------ ---- -------------
00000.M2TS 0:00:00.000 2:49:51.431 83,047,190,400 65,189

CHAPTERS:

Number Time In Length Avg Video Rate Max 1-Sec Rate Max 1-Sec Time Max 5-Sec Rate Max 5-Sec Time Max 10Sec Rate Max 10Sec Time Avg Frame Size Max Frame Size Max Frame Time
------ ------- ------ -------------- -------------- -------------- -------------- -------------- -------------- -------------- -------------- -------------- --------------
1 0:00:00.000 0:08:11.574 51,651 kbps 103,267 kbps 00:04:23.513 95,462 kbps 00:03:40.803 92,413 kbps 00:04:18.549 0 bytes 855,562 bytes 00:05:51.225
2 0:08:11.574 0:02:43.663 52,376 kbps 102,697 kbps 00:10:54.111 83,785 kbps 00:10:50.107 75,285 kbps 00:10:45.102 0 bytes 734,498 bytes 00:10:54.278
3 0:10:55.237 0:02:44.956 52,242 kbps 112,633 kbps 00:12:48.017 94,080 kbps 00:13:35.105 87,461 kbps 00:12:31.208 0 bytes 747,418 bytes 00:13:37.149
4 0:13:40.194 0:02:02.831 52,416 kbps 100,006 kbps 00:15:41.982 80,973 kbps 00:15:37.978 77,050 kbps 00:15:33.015 0 bytes 689,812 bytes 00:15:42.149
5 0:15:43.025 0:05:15.273 52,491 kbps 93,330 kbps 00:16:58.851 89,530 kbps 00:16:55.973 82,206 kbps 00:17:24.209 0 bytes 700,264 bytes 00:17:33.051
6 0:20:58.298 0:08:52.990 52,460 kbps 96,602 kbps 00:29:50.163 82,948 kbps 00:29:46.201 78,368 kbps 00:29:20.341 0 bytes 740,489 bytes 00:22:01.695
7 0:29:51.289 0:03:18.072 52,397 kbps 93,502 kbps 00:33:08.194 78,572 kbps 00:33:04.232 75,239 kbps 00:32:59.268 0 bytes 710,351 bytes 00:33:09.195
8 0:33:09.362 0:01:33.176 52,323 kbps 94,764 kbps 00:34:41.454 76,554 kbps 00:34:37.408 70,001 kbps 00:34:32.487 0 bytes 684,253 bytes 00:34:42.330
9 0:34:42.538 0:08:30.635 52,481 kbps 91,633 kbps 00:39:11.390 89,997 kbps 00:39:08.554 84,866 kbps 00:39:07.094 0 bytes 678,491 bytes 00:39:33.037
10 0:43:13.173 0:03:32.879 52,419 kbps 99,439 kbps 00:46:44.885 80,081 kbps 00:46:40.923 71,520 kbps 00:46:35.918 0 bytes 714,237 bytes 00:46:45.761
11 0:46:46.053 0:03:59.197 52,441 kbps 97,549 kbps 00:50:44.124 80,299 kbps 00:49:30.425 79,153 kbps 00:49:26.880 0 bytes 895,379 bytes 00:50:44.958
12 0:50:45.250 0:08:17.455 52,490 kbps 76,860 kbps 00:59:01.496 70,873 kbps 00:58:57.575 68,615 kbps 00:55:35.332 0 bytes 681,878 bytes 00:56:56.538
13 0:59:02.705 0:05:12.937 52,418 kbps 101,476 kbps 01:04:14.475 78,086 kbps 01:02:48.765 74,031 kbps 01:04:05.591 0 bytes 787,008 bytes 01:04:14.642
14 1:04:15.643 0:04:04.827 52,459 kbps 91,817 kbps 01:08:19.386 75,396 kbps 01:05:19.457 68,457 kbps 01:08:10.377 0 bytes 768,332 bytes 01:05:56.535
15 1:08:20.471 0:04:37.068 52,438 kbps 94,070 kbps 01:12:56.330 73,392 kbps 01:12:52.493 69,463 kbps 01:08:25.226 0 bytes 740,420 bytes 01:12:57.122
16 1:12:57.539 0:04:20.301 52,463 kbps 97,131 kbps 01:17:16.757 76,688 kbps 01:16:51.398 69,321 kbps 01:16:46.435 0 bytes 709,200 bytes 01:17:17.591
17 1:17:17.841 0:06:15.291 52,469 kbps 98,877 kbps 01:23:31.965 81,063 kbps 01:19:07.200 78,329 kbps 01:19:02.696 0 bytes 782,293 bytes 01:23:32.924
18 1:23:33.133 0:05:15.189 52,383 kbps 99,052 kbps 01:28:47.196 92,540 kbps 01:24:04.414 81,847 kbps 01:24:02.954 0 bytes 710,668 bytes 01:28:47.947
19 1:28:48.323 0:04:55.920 52,357 kbps 96,723 kbps 01:33:42.408 89,695 kbps 01:33:39.155 81,485 kbps 01:33:34.150 0 bytes 716,217 bytes 01:33:43.576
20 1:33:44.243 0:09:47.253 52,491 kbps 88,978 kbps 01:42:49.121 86,932 kbps 01:42:48.579 85,787 kbps 01:42:49.121 0 bytes 708,135 bytes 01:41:36.131
21 1:43:31.496 0:03:30.209 52,021 kbps 102,493 kbps 01:46:59.037 91,181 kbps 01:46:56.701 84,970 kbps 01:46:51.696 0 bytes 723,692 bytes 01:46:59.121
22 1:47:01.706 0:04:46.703 52,432 kbps 87,778 kbps 01:51:47.283 74,062 kbps 01:49:07.457 69,423 kbps 01:47:01.706 0 bytes 672,792 bytes 01:51:47.659
23 1:51:48.410 0:05:31.581 52,360 kbps 98,707 kbps 01:57:18.781 87,568 kbps 01:57:14.861 80,940 kbps 01:57:09.856 0 bytes 770,035 bytes 01:57:19.240
24 1:57:19.991 0:05:23.114 52,070 kbps 100,061 kbps 02:00:24.008 95,251 kbps 02:01:56.100 92,939 kbps 02:01:55.933 0 bytes 711,771 bytes 01:59:52.643
25 2:02:43.105 0:04:25.098 52,338 kbps 104,348 kbps 02:07:06.076 92,936 kbps 02:07:03.073 85,681 kbps 02:06:58.068 0 bytes 756,061 bytes 02:07:06.452
26 2:07:08.203 0:06:50.201 52,444 kbps 96,198 kbps 02:13:57.279 82,145 kbps 02:13:53.275 75,634 kbps 02:13:48.270 0 bytes 679,059 bytes 02:13:55.861
27 2:13:58.405 0:02:06.042 51,230 kbps 98,007 kbps 02:16:00.527 94,168 kbps 02:15:59.317 84,654 kbps 02:15:54.312 0 bytes 729,196 bytes 02:16:01.653
28 2:16:04.447 0:05:41.632 52,278 kbps 105,300 kbps 02:19:21.186 93,012 kbps 02:19:41.039 86,357 kbps 02:19:41.039 0 bytes 758,026 bytes 02:19:22.020
29 2:21:46.080 0:02:36.698 52,348 kbps 88,646 kbps 02:24:21.653 74,149 kbps 02:24:17.649 65,275 kbps 02:24:12.644 0 bytes 593,278 bytes 02:24:21.819
30 2:24:22.779 0:06:15.083 52,430 kbps 101,858 kbps 02:30:36.736 85,112 kbps 02:30:32.732 75,070 kbps 02:25:18.584 0 bytes 747,181 bytes 02:30:37.695
31 2:30:37.862 0:04:37.026 52,481 kbps 88,170 kbps 02:35:13.762 68,873 kbps 02:35:09.800 61,376 kbps 02:35:04.837 0 bytes 680,375 bytes 02:35:14.346
32 2:35:14.888 0:02:18.179 52,390 kbps 99,535 kbps 02:37:31.942 68,815 kbps 02:37:27.980 63,731 kbps 02:36:48.565 0 bytes 682,131 bytes 02:37:32.526
33 2:37:33.068 0:02:31.234 52,292 kbps 104,736 kbps 02:40:02.301 91,043 kbps 02:39:59.131 84,404 kbps 02:39:54.126 0 bytes 800,020 bytes 02:40:04.094
34 2:40:04.303 0:03:16.696 52,383 kbps 103,584 kbps 02:43:19.998 92,209 kbps 02:43:15.994 71,285 kbps 02:41:31.807 0 bytes 956,744 bytes 02:43:20.957
35 2:43:20.999 0:06:30.431 52,253 kbps 107,425 kbps 02:43:20.999 96,106 kbps 02:44:16.179 93,386 kbps 02:44:11.925 0 bytes 779,957 bytes 02:43:21.374

STREAM DIAGNOSTICS:

File PID Type Codec Language Seconds Bitrate Bytes Packets
---- --- ---- ----- -------- -------------- -------------- ------------- -----
00000.M2TS 4113 (0x1011) 0x24 HEVC 10191.348 52,345 66,683,162,739 362,554,138
00000.M2TS 4352 (0x1100) 0x86 DTS:X MA eng (English) 10191.348 5,793 7,379,467,244 41,696,936
00000.M2TS 4353 (0x1101) 0x82 DTS eng (English) 10191.348 768 978,376,704 5,732,676
00000.M2TS 4354 (0x1102) 0x82 DTS fra (French) 10191.348 447 569,445,816 3,821,784
00000.M2TS 4355 (0x1103) 0x82 DTS rus (Russian) 10191.348 447 569,445,816 3,821,784
00000.M2TS 4356 (0x1104) 0x82 DTS ces (Czech) 10191.348 447 569,445,816 3,821,784
00000.M2TS 4357 (0x1105) 0x82 DTS hun (Hungarian) 10191.348 447 569,445,816 3,821,784
00000.M2TS 4358 (0x1106) 0x82 DTS pol (Polish) 10191.348 447 569,445,816 3,821,784
00000.M2TS 4768 (0x12A0) 0x90 PGS eng (English) 10191.348 38 48,604,578 281,916
00000.M2TS 4769 (0x12A1) 0x90 PGS fra (French) 10191.348 32 40,609,929 235,128
00000.M2TS 4770 (0x12A2) 0x90 PGS nld (Dutch) 10191.348 33 42,057,554 242,950
00000.M2TS 4771 (0x12A3) 0x90 PGS dan (Danish) 10191.348 30 37,759,365 219,671
00000.M2TS 4772 (0x12A4) 0x90 PGS fin (Finnish) 10191.348 32 40,647,024 235,502
00000.M2TS 4773 (0x12A5) 0x90 PGS nor (Norwegian) 10191.348 32 40,806,203 236,281
00000.M2TS 4774 (0x12A6) 0x90 PGS swe (Swedish) 10191.348 29 36,825,809 214,719
00000.M2TS 4775 (0x12A7) 0x90 PGS rus (Russian) 10191.348 34 43,139,188 248,855
00000.M2TS 4776 (0x12A8) 0x90 PGS ces (Czech) 10191.348 30 37,841,808 220,235
00000.M2TS 4777 (0x12A9) 0x90 PGS hun (Hungarian) 10191.348 34 43,831,168 252,718
00000.M2TS 4778 (0x12AA) 0x90 PGS pol (Polish) 10191.348 33 41,973,706 242,622
00000.M2TS 4779 (0x12AB) 0x90 PGS ell (Greek) 10191.348 34 43,281,449 249,794
00000.M2TS 4780 (0x12AC) 0x90 PGS ron (Romanian) 10191.348 28 35,662,146 208,360
00000.M2TS 4781 (0x12AD) 0x90 PGS eng (English) 10191.348 1 949,359 5,436
00000.M2TS 4782 (0x12AE) 0x90 PGS fra (French) 10191.348 1 1,008,481 5,838
00000.M2TS 4783 (0x12AF) 0x90 PGS ces (Czech) 10191.348 0 439,256 2,600
00000.M2TS 4784 (0x12B0) 0x90 PGS hun (Hungarian) 10191.348 0 192,708 1,135

<---- END FORUMS PASTE ---->

QUICK SUMMARY:

Disc Title: Scarface
Disc Label: Scarface.1983.MULTI.COMPLETE.UHD.BLURAY-GLiMMER
Disc Size: 93,948,302,770 bytes
Protection: AACS2
Playlist: 00800.MPLS
Size: 83,047,190,400 bytes
Length: 2:49:51.431
Total Bitrate: 65.19 Mbps
Video: MPEG-H HEVC Video / 52344 kbps / 2160p / 23.976 fps / 16:9 / Main 10 @ Level 5.1 @ High / 10 bits / HDR10 / BT.2020
Audio: English / DTS:X Master Audio / 7.1 / 48 kHz / 5793 kbps / 24-bit (DTS Core: 5.1 / 48 kHz / 1509 kbps / 24-bit)
Audio: English / DTS Audio / 2.0 / 48 kHz / 768 kbps / 24-bit
Audio: French / DTS Audio / 2.0 / 48 kHz / 448 kbps / 24-bit
Audio: Russian / DTS Audio / 2.0 / 48 kHz / 448 kbps / 24-bit
Audio: Czech / DTS Audio / 2.0 / 48 kHz / 448 kbps / 24-bit
Audio: Hungarian / DTS Audio / 2.0 / 48 kHz / 448 kbps / 24-bit
Audio: Polish / DTS Audio / 2.0 / 48 kHz / 448 kbps / 24-bit
Subtitle: English / 38.153 kbps
Subtitle: French / 31.877 kbps
Subtitle: Dutch / 33.014 kbps
Subtitle: Danish / 29.640 kbps
Subtitle: Finnish / 31.907 kbps
Subtitle: Norwegian / 32.032 kbps
Subtitle: Swedish / 28.907 kbps
Subtitle: Russian / 33.863 kbps
Subtitle: Czech / 29.705 kbps
Subtitle: Hungarian / 34.406 kbps
Subtitle: Polish / 32.948 kbps
Subtitle: Greek / 33.974 kbps
Subtitle: Romanian / 27.994 kbps
Subtitle: English / 0.745 kbps
Subtitle: French / 0.792 kbps
Subtitle: Czech / 0.345 kbps
Subtitle: Hungarian / 0.151 kbps

********************
PLAYLIST: 00301.MPLS
********************

<--- BEGIN FORUMS PASTE --->

Total Video
Title Codec Length Movie Size Disc Size Bitrate Bitrate Main Audio Track Secondary Audio Track
----- ------ ------- -------------- -------------- ------- ------- ------------------ ---------------------
00301.MPLS HEVC 0:27:07 9,715,461,888 93,948,302,770 47.77 44.96 DD AC3 2.0 192Kbps

DISC INFO:

Disc Title: Scarface
Disc Label: Scarface.1983.MULTI.COMPLETE.UHD.BLURAY-GLiMMER
Disc Size: 93,948,302,770 bytes
Protection: AACS2
Extras: Ultra HD, BD-Java
BDInfo: 0.7.5.5

PLAYLIST REPORT:

Name: 00301.MPLS
Length: 0:27:07.167 (h:m:s.ms)
Size: 9,715,461,888 bytes
Total Bitrate: 47.77 Mbps

VIDEO:

Codec Bitrate Description
----- ------- -----------
MPEG-H HEVC Video 44957 kbps 2160p / 23.976 fps / 16:9 / Main 10 @ Level 5.1 @ High / 10 bits / BT.709

AUDIO:

Codec Language Bitrate Description
----- -------- ------- -----------
Dolby Digital Audio English 192 kbps 2.0 / 48 kHz / 192 kbps / DN -27dB

SUBTITLES:

Codec Language Bitrate Description
----- -------- ------- -----------
Presentation Graphics English 64.589 kbps
Presentation Graphics French 54.838 kbps
Presentation Graphics Dutch 52.854 kbps
Presentation Graphics Russian 49.951 kbps
Presentation Graphics Czech 49.230 kbps
Presentation Graphics Hungarian 54.136 kbps
Presentation Graphics Polish 46.204 kbps
Presentation Graphics Greek 60.958 kbps
Presentation Graphics Romanian 52.378 kbps

FILES:

Name Time In Length Size Total Bitrate
---- ------- ------ ---- -------------
00093.M2TS 0:00:00.000 0:27:06.916 9,715,453,824 47,771
00020.M2TS 0:27:06.916 0:00:00.250 8,064 193

CHAPTERS:

Number Time In Length Avg Video Rate Max 1-Sec Rate Max 1-Sec Time Max 5-Sec Rate Max 5-Sec Time Max 10Sec Rate Max 10Sec Time Avg Frame Size Max Frame Size Max Frame Time
------ ------- ------ -------------- -------------- -------------- -------------- -------------- -------------- -------------- -------------- -------------- --------------
1 0:00:00.000 0:27:07.167 44,962 kbps 107,082 kbps 00:26:57.949 98,466 kbps 00:26:36.803 98,256 kbps 00:26:39.014 0 bytes 712,278 bytes 00:26:37.846

STREAM DIAGNOSTICS:

File PID Type Codec Language Seconds Bitrate Bytes Packets
---- --- ---- ----- -------- -------------- -------------- ------------- -----
00093.M2TS 4113 (0x1011) 0x24 HEVC 1626.834 44,971 9,144,993,809 49,724,169
00093.M2TS 4352 (0x1100) 0x81 AC3 eng (English) 1626.834 192 39,045,888 254,205
00093.M2TS 4608 (0x1200) 0x90 PGS eng (English) 1626.834 65 13,138,513 75,203
00093.M2TS 4609 (0x1201) 0x90 PGS fra (French) 1626.834 55 11,155,033 64,180
00093.M2TS 4610 (0x1202) 0x90 PGS nld (Dutch) 1626.834 53 10,751,470 61,970
00093.M2TS 4611 (0x1203) 0x90 PGS rus (Russian) 1626.834 50 10,160,909 58,767
00093.M2TS 4612 (0x1204) 0x90 PGS ces (Czech) 1626.834 49 10,014,269 57,972
00093.M2TS 4613 (0x1205) 0x90 PGS hun (Hungarian) 1626.834 54 11,012,096 63,411
00093.M2TS 4614 (0x1206) 0x90 PGS pol (Polish) 1626.834 46 9,398,661 54,632
00093.M2TS 4615 (0x1207) 0x90 PGS ell (Greek) 1626.834 61 12,399,859 70,919
00093.M2TS 4616 (0x1208) 0x90 PGS ron (Romanian) 1626.834 52 10,654,520 61,454
00020.M2TS 4113 (0x1011) 0x24 HEVC 0.167 214 4,455 29

<---- END FORUMS PASTE ---->

QUICK SUMMARY:

Disc Title: Scarface
Disc Label: Scarface.1983.MULTI.COMPLETE.UHD.BLURAY-GLiMMER
Disc Size: 93,948,302,770 bytes
Protection: AACS2
Playlist: 00301.MPLS
Size: 9,715,461,888 bytes
Length: 0:27:07.167
Total Bitrate: 47.77 Mbps
Video: MPEG-H HEVC Video / 44957 kbps / 2160p / 23.976 fps / 16:9 / Main 10 @ Level 5.1 @ High / 10 bits / BT.709
Audio: English / Dolby Digital Audio / 2.0 / 48 kHz / 192 kbps / DN -27dB
Subtitle: English / 64.589 kbps
Subtitle: French / 54.838 kbps
Subtitle: Dutch / 52.854 kbps
Subtitle: Russian / 49.951 kbps
Subtitle: Czech / 49.230 kbps
Subtitle: Hungarian / 54.136 kbps
Subtitle: Polish / 46.204 kbps
Subtitle: Greek / 60.958 kbps
Subtitle: Romanian / 52.378 kbps

********************
PLAYLIST: 00077.MPLS
********************

<--- BEGIN FORUMS PASTE --->

Total Video
Title Codec Length Movie Size Disc Size Bitrate Bitrate Main Audio Track Secondary Audio Track
----- ------ ------- -------------- -------------- ------- ------- ------------------ ---------------------
00077.MPLS HEVC 0:05:25 77,850,432 93,948,302,770 1.91 1.73

DISC INFO:

Disc Title: Scarface
Disc Label: Scarface.1983.MULTI.COMPLETE.UHD.BLURAY-GLiMMER
Disc Size: 93,948,302,770 bytes
Protection: AACS2
Extras: Ultra HD, BD-Java
BDInfo: 0.7.5.5

PLAYLIST REPORT:

Name: 00077.MPLS
Length: 0:05:25.575 (h:m:s.ms)
Size: 77,850,432 bytes
Total Bitrate: 1.91 Mbps

VIDEO:

Codec Bitrate Description
----- ------- -----------
MPEG-H HEVC Video 1728 kbps 2160p / 23.976 fps / 16:9 / Main 10 @ Level 5.1 @ High / 10 bits / HDR10 / BT.2020

FILES:

Name Time In Length Size Total Bitrate
---- ------- ------ ---- -------------
00028.M2TS 0:00:00.000 0:00:05.004 1,276,800 2,007
00029.M2TS 0:00:05.004 0:00:05.004 1,219,968 1,918
00030.M2TS 0:00:10.009 0:00:05.004 1,147,584 1,804
00031.M2TS 0:00:15.014 0:00:05.004 922,368 1,450
00032.M2TS 0:00:20.019 0:00:05.004 1,477,824 2,323
00033.M2TS 0:00:25.024 0:00:05.004 2,601,792 4,091
00034.M2TS 0:00:30.029 0:00:05.004 1,059,840 1,666
00035.M2TS 0:00:35.034 0:00:05.004 1,139,136 1,791
00036.M2TS 0:00:40.039 0:00:05.004 972,672 1,529
00037.M2TS 0:00:45.044 0:00:05.004 1,610,496 2,532
00038.M2TS 0:00:50.049 0:00:05.004 1,090,176 1,714
00039.M2TS 0:00:55.054 0:00:05.004 947,520 1,490
00040.M2TS 0:01:00.059 0:00:05.004 1,561,920 2,456
00041.M2TS 0:01:05.064 0:00:05.004 1,030,464 1,620
00042.M2TS 0:01:10.069 0:00:05.004 1,700,736 2,674
00043.M2TS 0:01:15.074 0:00:05.004 927,552 1,458
00044.M2TS 0:01:20.079 0:00:05.004 1,447,872 2,276
00045.M2TS 0:01:25.084 0:00:05.004 1,020,288 1,604
00046.M2TS 0:01:30.089 0:00:05.004 1,649,472 2,593
00048.M2TS 0:01:35.094 0:00:05.004 952,512 1,498
00047.M2TS 0:01:40.099 0:00:05.004 564,672 888
00049.M2TS 0:01:45.104 0:00:05.004 1,021,056 1,605
00050.M2TS 0:01:50.109 0:00:05.004 780,288 1,227
00051.M2TS 0:01:55.114 0:00:05.004 2,234,880 3,514
00052.M2TS 0:02:00.119 0:00:05.004 1,269,696 1,996
00053.M2TS 0:02:05.124 0:00:05.004 1,819,392 2,860
00054.M2TS 0:02:10.129 0:00:05.004 784,896 1,234
00055.M2TS 0:02:15.134 0:00:05.004 937,536 1,474
00056.M2TS 0:02:20.139 0:00:05.004 1,064,640 1,674
00057.M2TS 0:02:25.144 0:00:05.004 756,864 1,190
00058.M2TS 0:02:30.149 0:00:05.004 1,724,736 2,712
00059.M2TS 0:02:35.154 0:00:05.004 763,776 1,201
00060.M2TS 0:02:40.159 0:00:05.004 568,896 894
00061.M2TS 0:02:45.164 0:00:05.004 1,216,896 1,913
00062.M2TS 0:02:50.169 0:00:05.004 907,968 1,428
00063.M2TS 0:02:55.174 0:00:05.004 1,079,616 1,697
00064.M2TS 0:03:00.179 0:00:05.004 759,744 1,194
00065.M2TS 0:03:05.184 0:00:05.004 1,438,464 2,262
00066.M2TS 0:03:10.189 0:00:05.004 1,163,520 1,829
00067.M2TS 0:03:15.194 0:00:05.004 1,837,632 2,889
00068.M2TS 0:03:20.199 0:00:05.004 795,072 1,250
00069.M2TS 0:03:25.204 0:00:05.004 975,936 1,534
00070.M2TS 0:03:30.209 0:00:05.004 746,112 1,173
00071.M2TS 0:03:35.214 0:00:05.004 2,011,776 3,163
00072.M2TS 0:03:40.219 0:00:05.004 1,871,232 2,942
00073.M2TS 0:03:45.224 0:00:05.004 1,040,448 1,636
00074.M2TS 0:03:50.229 0:00:05.004 930,816 1,463
00075.M2TS 0:03:55.234 0:00:05.004 633,600 996
00076.M2TS 0:04:00.239 0:00:05.004 1,389,120 2,184
00077.M2TS 0:04:05.244 0:00:05.004 1,080,192 1,698
00078.M2TS 0:04:10.249 0:00:05.004 1,119,552 1,760
00079.M2TS 0:04:15.254 0:00:05.004 520,320 818
00080.M2TS 0:04:20.259 0:00:05.004 942,336 1,482
00081.M2TS 0:04:25.264 0:00:05.004 1,669,056 2,624
00082.M2TS 0:04:30.269 0:00:05.004 731,328 1,150
00083.M2TS 0:04:35.274 0:00:05.004 1,203,072 1,891
00084.M2TS 0:04:40.279 0:00:05.004 635,136 999
00085.M2TS 0:04:45.284 0:00:05.004 1,997,952 3,141
00086.M2TS 0:04:50.289 0:00:05.004 1,121,088 1,763
00087.M2TS 0:04:55.294 0:00:05.004 1,497,984 2,355
00088.M2TS 0:05:00.299 0:00:05.004 1,008,960 1,586
00089.M2TS 0:05:05.304 0:00:05.004 1,207,488 1,898
00090.M2TS 0:05:10.309 0:00:05.004 1,026,048 1,613
00091.M2TS 0:05:15.314 0:00:05.004 1,647,168 2,590
00092.M2TS 0:05:20.319 0:00:05.004 1,588,416 2,497
00003.M2TS 0:05:25.324 0:00:00.250 8,064 193

CHAPTERS:

Number Time In Length Avg Video Rate Max 1-Sec Rate Max 1-Sec Time Max 5-Sec Rate Max 5-Sec Time Max 10Sec Rate Max 10Sec Time Avg Frame Size Max Frame Size Max Frame Time
------ ------- ------ -------------- -------------- -------------- -------------- -------------- -------------- -------------- -------------- -------------- --------------
1 0:00:00.000 0:00:05.004 1,881 kbps 2,322 kbps 00:00:00.041 0 kbps 00:00:00.000 0 kbps 00:00:00.000 0 bytes 276,077 bytes 00:00:00.917
2 0:00:05.004 0:00:05.004 1,799 kbps 2,222 kbps 00:00:05.004 1,799 kbps 00:00:05.004 0 kbps 00:00:00.000 0 bytes 261,488 bytes 00:00:05.922
3 0:00:10.009 0:00:05.004 1,686 kbps 2,078 kbps 00:00:10.135 1,686 kbps 00:00:10.009 0 kbps 00:00:00.000 0 bytes 244,329 bytes 00:00:10.927
4 0:00:15.014 0:00:05.004 1,332 kbps 1,640 kbps 00:00:15.014 1,332 kbps 00:00:15.014 0 kbps 00:00:00.000 0 bytes 191,774 bytes 00:00:15.932
5 0:00:20.019 0:00:05.004 2,194 kbps 2,714 kbps 00:00:20.019 2,194 kbps 00:00:20.019 0 kbps 00:00:00.000 0 bytes 324,916 bytes 00:00:20.937
6 0:00:25.024 0:00:05.004 3,914 kbps 4,868 kbps 00:00:25.150 3,914 kbps 00:00:25.024 0 kbps 00:00:00.000 0 bytes 594,346 bytes 00:00:25.942
7 0:00:30.029 0:00:05.004 1,548 kbps 1,909 kbps 00:00:30.029 1,548 kbps 00:00:30.029 0 kbps 00:00:00.000 0 bytes 224,729 bytes 00:00:30.947
8 0:00:35.034 0:00:05.004 1,675 kbps 2,064 kbps 00:00:35.034 1,675 kbps 00:00:35.034 0 kbps 00:00:00.000 0 bytes 242,938 bytes 00:00:35.952
9 0:00:40.039 0:00:05.004 1,415 kbps 1,739 kbps 00:00:40.039 1,415 kbps 00:00:40.039 0 kbps 00:00:00.000 0 bytes 202,342 bytes 00:00:40.957
10 0:00:45.044 0:00:05.004 2,397 kbps 2,971 kbps 00:00:45.044 2,397 kbps 00:00:45.044 0 kbps 00:00:00.000 0 bytes 355,472 bytes 00:00:45.962
11 0:00:50.049 0:00:05.004 1,592 kbps 1,962 kbps 00:00:50.049 1,592 kbps 00:00:50.049 0 kbps 00:00:00.000 0 bytes 231,142 bytes 00:00:50.967
12 0:00:55.054 0:00:05.004 1,372 kbps 1,679 kbps 00:00:55.054 1,372 kbps 00:00:55.054 0 kbps 00:00:00.000 0 bytes 190,903 bytes 00:00:55.972
13 0:01:00.059 0:00:05.004 2,319 kbps 2,871 kbps 00:01:00.101 2,319 kbps 00:01:00.059 0 kbps 00:00:00.000 0 bytes 344,366 bytes 00:01:00.977
14 0:01:05.064 0:00:05.004 1,503 kbps 1,852 kbps 00:01:05.064 1,503 kbps 00:01:05.064 0 kbps 00:00:00.000 0 bytes 217,627 bytes 00:01:05.982
15 0:01:10.069 0:00:05.004 2,530 kbps 3,140 kbps 00:01:10.069 2,530 kbps 00:01:10.069 0 kbps 00:00:00.000 0 bytes 376,641 bytes 00:01:10.987
16 0:01:15.074 0:00:05.004 1,343 kbps 1,652 kbps 00:01:15.074 1,343 kbps 00:01:15.074 0 kbps 00:00:00.000 0 bytes 192,696 bytes 00:01:15.992
17 0:01:20.079 0:00:05.004 2,152 kbps 2,662 kbps 00:01:20.079 2,152 kbps 00:01:20.079 0 kbps 00:00:00.000 0 bytes 318,142 bytes 00:01:20.997
18 0:01:25.084 0:00:05.004 1,495 kbps 1,841 kbps 00:01:25.084 1,495 kbps 00:01:25.084 0 kbps 00:00:00.000 0 bytes 215,662 bytes 00:01:26.002
19 0:01:30.089 0:00:05.004 2,450 kbps 3,036 kbps 00:01:30.089 2,450 kbps 00:01:30.089 0 kbps 00:00:00.000 0 bytes 366,446 bytes 00:01:31.007
20 0:01:35.094 0:00:05.004 1,380 kbps 1,698 kbps 00:01:35.094 1,380 kbps 00:01:35.094 0 kbps 00:00:00.000 0 bytes 198,229 bytes 00:01:36.012
21 0:01:40.099 0:00:05.004 797 kbps 975 kbps 00:01:40.099 797 kbps 00:01:40.099 0 kbps 00:00:00.000 0 bytes 110,872 bytes 00:01:41.017
22 0:01:45.104 0:00:05.004 1,482 kbps 1,826 kbps 00:01:45.104 1,482 kbps 00:01:45.104 0 kbps 00:00:00.000 0 bytes 214,911 bytes 00:01:46.022
23 0:01:50.109 0:00:05.004 1,125 kbps 1,377 kbps 00:01:50.109 1,125 kbps 00:01:50.109 0 kbps 00:00:00.000 0 bytes 156,773 bytes 00:01:51.027
24 0:01:55.114 0:00:05.004 3,348 kbps 4,158 kbps 00:01:55.114 3,348 kbps 00:01:55.114 0 kbps 00:00:00.000 0 bytes 505,329 bytes 00:01:56.032
25 0:02:00.119 0:00:05.004 1,870 kbps 2,313 kbps 00:02:00.119 1,870 kbps 00:02:00.119 0 kbps 00:00:00.000 0 bytes 276,934 bytes 00:02:01.037
26 0:02:05.124 0:00:05.004 2,709 kbps 3,361 kbps 00:02:05.124 2,709 kbps 00:02:05.124 0 kbps 00:00:00.000 0 bytes 405,486 bytes 00:02:06.042
27 0:02:10.129 0:00:05.004 1,116 kbps 1,371 kbps 00:02:10.129 1,116 kbps 00:02:10.129 0 kbps 00:00:00.000 0 bytes 158,435 bytes 00:02:11.047
28 0:02:15.134 0:00:05.004 1,350 kbps 1,663 kbps 00:02:15.134 1,350 kbps 00:02:15.134 0 kbps 00:00:00.000 0 bytes 194,921 bytes 00:02:16.052
29 0:02:20.139 0:00:05.004 1,562 kbps 1,924 kbps 00:02:20.139 1,562 kbps 00:02:20.139 0 kbps 00:00:00.000 0 bytes 225,984 bytes 00:02:21.057
30 0:02:25.144 0:00:05.004 1,095 kbps 1,346 kbps 00:02:25.144 1,095 kbps 00:02:25.144 0 kbps 00:00:00.000 0 bytes 156,029 bytes 00:02:26.062
31 0:02:30.149 0:00:05.004 2,578 kbps 3,194 kbps 00:02:30.233 2,578 kbps 00:02:30.149 0 kbps 00:00:00.000 0 bytes 383,678 bytes 00:02:31.067
32 0:02:35.154 0:00:05.004 1,092 kbps 1,341 kbps 00:02:35.154 1,092 kbps 00:02:35.154 0 kbps 00:00:00.000 0 bytes 155,337 bytes 00:02:36.072
33 0:02:40.159 0:00:05.004 788 kbps 960 kbps 00:02:40.159 788 kbps 00:02:40.159 0 kbps 00:00:00.000 0 bytes 106,478 bytes 00:02:41.077
34 0:02:45.164 0:00:05.004 1,793 kbps 2,214 kbps 00:02:45.164 1,793 kbps 00:02:45.164 0 kbps 00:00:00.000 0 bytes 262,579 bytes 00:02:46.082
35 0:02:50.169 0:00:05.004 1,310 kbps 1,611 kbps 00:02:50.169 1,310 kbps 00:02:50.169 0 kbps 00:00:00.000 0 bytes 188,025 bytes 00:02:51.087
36 0:02:55.174 0:00:05.004 1,579 kbps 1,947 kbps 00:02:55.174 1,579 kbps 00:02:55.174 0 kbps 00:00:00.000 0 bytes 229,597 bytes 00:02:56.092
37 0:03:00.179 0:00:05.004 1,079 kbps 1,325 kbps 00:03:00.179 1,079 kbps 00:03:00.179 0 kbps 00:00:00.000 0 bytes 153,312 bytes 00:03:01.097
38 0:03:05.184 0:00:05.004 2,126 kbps 2,632 kbps 00:03:05.184 2,126 kbps 00:03:05.184 0 kbps 00:00:00.000 0 bytes 315,472 bytes 00:03:06.102
39 0:03:10.189 0:00:05.004 1,703 kbps 2,102 kbps 00:03:10.189 1,703 kbps 00:03:10.189 0 kbps 00:00:00.000 0 bytes 249,026 bytes 00:03:11.107
40 0:03:15.194 0:00:05.004 2,747 kbps 3,406 kbps 00:03:16.070 2,747 kbps 00:03:15.194 0 kbps 00:00:00.000 0 bytes 411,051 bytes 00:03:16.112
41 0:03:20.199 0:00:05.004 1,130 kbps 1,388 kbps 00:03:20.199 1,130 kbps 00:03:20.199 0 kbps 00:00:00.000 0 bytes 160,620 bytes 00:03:21.117
42 0:03:25.204 0:00:05.004 1,417 kbps 1,746 kbps 00:03:25.204 1,417 kbps 00:03:25.204 0 kbps 00:00:00.000 0 bytes 205,259 bytes 00:03:26.122
43 0:03:30.209 0:00:05.004 1,053 kbps 1,292 kbps 00:03:30.209 1,053 kbps 00:03:30.209 0 kbps 00:00:00.000 0 bytes 148,670 bytes 00:03:31.127
44 0:03:35.214 0:00:05.004 3,001 kbps 3,725 kbps 00:03:36.090 3,001 kbps 00:03:35.214 0 kbps 00:00:00.000 0 bytes 452,250 bytes 00:03:36.132
45 0:03:40.219 0:00:05.004 2,786 kbps 3,456 kbps 00:03:40.219 2,786 kbps 00:03:40.219 0 kbps 00:00:00.000 0 bytes 418,941 bytes 00:03:41.137
46 0:03:45.224 0:00:05.004 1,522 kbps 1,874 kbps 00:03:45.224 1,522 kbps 00:03:45.224 0 kbps 00:00:00.000 0 bytes 219,833 bytes 00:03:46.142
47 0:03:50.229 0:00:05.004 1,361 kbps 1,675 kbps 00:03:50.229 1,361 kbps 00:03:50.229 0 kbps 00:00:00.000 0 bytes 195,110 bytes 00:03:51.147
48 0:03:55.234 0:00:05.004 902 kbps 1,105 kbps 00:03:55.234 902 kbps 00:03:55.234 0 kbps 00:00:00.000 0 bytes 126,991 bytes 00:03:56.152
49 0:04:00.239 0:00:05.004 2,051 kbps 2,538 kbps 00:04:00.239 2,051 kbps 00:04:00.239 0 kbps 00:00:00.000 0 bytes 303,918 bytes 00:04:01.157
50 0:04:05.244 0:00:05.004 1,569 kbps 1,936 kbps 00:04:05.244 1,569 kbps 00:04:05.244 0 kbps 00:00:00.000 0 bytes 228,918 bytes 00:04:06.162
51 0:04:10.249 0:00:05.004 1,649 kbps 2,041 kbps 00:04:10.249 1,649 kbps 00:04:10.249 0 kbps 00:00:00.000 0 bytes 244,515 bytes 00:04:11.167
52 0:04:15.254 0:00:05.004 723 kbps 884 kbps 00:04:15.254 723 kbps 00:04:15.254 0 kbps 00:00:00.000 0 bytes 100,370 bytes 00:04:16.172
53 0:04:20.259 0:00:05.004 1,361 kbps 1,676 kbps 00:04:20.259 1,361 kbps 00:04:20.259 0 kbps 00:00:00.000 0 bytes 196,287 bytes 00:04:21.177
54 0:04:25.264 0:00:05.004 2,482 kbps 3,076 kbps 00:04:25.264 2,482 kbps 00:04:25.264 0 kbps 00:00:00.000 0 bytes 371,131 bytes 00:04:26.182
55 0:04:30.269 0:00:05.004 1,029 kbps 1,262 kbps 00:04:30.269 1,029 kbps 00:04:30.269 0 kbps 00:00:00.000 0 bytes 145,336 bytes 00:04:31.187
56 0:04:35.274 0:00:05.004 1,780 kbps 2,202 kbps 00:04:35.274 1,780 kbps 00:04:35.274 0 kbps 00:00:00.000 0 bytes 264,267 bytes 00:04:36.192
57 0:04:40.279 0:00:05.004 902 kbps 1,103 kbps 00:04:40.279 902 kbps 00:04:40.279 0 kbps 00:00:00.000 0 bytes 125,122 bytes 00:04:41.197
58 0:04:45.284 0:00:05.004 2,990 kbps 3,713 kbps 00:04:45.410 2,990 kbps 00:04:45.284 0 kbps 00:00:00.000 0 bytes 447,317 bytes 00:04:46.202
59 0:04:50.289 0:00:05.004 1,637 kbps 2,017 kbps 00:04:50.289 1,637 kbps 00:04:50.289 0 kbps 00:00:00.000 0 bytes 236,744 bytes 00:04:51.207
60 0:04:55.294 0:00:05.004 2,221 kbps 2,748 kbps 00:04:55.294 2,221 kbps 00:04:55.294 0 kbps 00:00:00.000 0 bytes 328,820 bytes 00:04:56.212
61 0:05:00.299 0:00:05.004 1,462 kbps 1,797 kbps 00:05:00.299 1,462 kbps 00:05:00.299 0 kbps 00:00:00.000 0 bytes 208,243 bytes 00:05:01.217
62 0:05:05.304 0:00:05.004 1,770 kbps 2,187 kbps 00:05:05.304 1,770 kbps 00:05:05.304 0 kbps 00:00:00.000 0 bytes 260,082 bytes 00:05:06.222
63 0:05:10.309 0:00:05.004 1,484 kbps 1,830 kbps 00:05:10.309 1,484 kbps 00:05:10.309 0 kbps 00:00:00.000 0 bytes 216,048 bytes 00:05:11.227
64 0:05:15.314 0:00:05.004 2,459 kbps 3,041 kbps 00:05:15.606 2,459 kbps 00:05:15.314 0 kbps 00:00:00.000 0 bytes 362,204 bytes 00:05:16.232
65 0:05:20.319 0:00:05.255 2,256 kbps 2,929 kbps 00:05:20.653 2,367 kbps 00:05:20.319 0 kbps 00:00:00.000 0 bytes 348,935 bytes 00:05:21.237

STREAM DIAGNOSTICS:

File PID Type Codec Language Seconds Bitrate Bytes Packets
---- --- ---- ----- -------- -------------- -------------- ------------- -----
00028.M2TS 4113 (0x1011) 0x24 HEVC 4.922 2,362 1,452,897 7,965
00029.M2TS 4113 (0x1011) 0x24 HEVC 4.922 2,244 1,380,695 7,556
00030.M2TS 4113 (0x1011) 0x24 HEVC 4.922 2,097 1,290,323 7,077
00031.M2TS 4113 (0x1011) 0x24 HEVC 4.922 1,667 1,025,767 5,675
00032.M2TS 4113 (0x1011) 0x24 HEVC 4.922 2,760 1,698,197 9,290
00033.M2TS 4113 (0x1011) 0x24 HEVC 4.922 4,855 2,986,797 16,305
00034.M2TS 4113 (0x1011) 0x24 HEVC 4.922 1,941 1,194,032 6,575
00035.M2TS 4113 (0x1011) 0x24 HEVC 4.922 2,099 1,291,487 7,085
00036.M2TS 4113 (0x1011) 0x24 HEVC 4.922 1,768 1,087,752 5,995
00037.M2TS 4113 (0x1011) 0x24 HEVC 4.922 3,000 1,845,533 10,102
00038.M2TS 4113 (0x1011) 0x24 HEVC 4.922 1,995 1,227,332 6,745
00039.M2TS 4113 (0x1011) 0x24 HEVC 4.922 1,707 1,050,442 5,800
00040.M2TS 4113 (0x1011) 0x24 HEVC 4.922 2,900 1,784,233 9,756
00041.M2TS 4113 (0x1011) 0x24 HEVC 4.922 1,883 1,158,687 6,380
00042.M2TS 4113 (0x1011) 0x24 HEVC 4.922 3,157 1,942,217 10,629
00043.M2TS 4113 (0x1011) 0x24 HEVC 4.922 1,680 1,033,542 5,700
00044.M2TS 4113 (0x1011) 0x24 HEVC 4.922 2,707 1,665,257 9,110
00045.M2TS 4113 (0x1011) 0x24 HEVC 4.922 1,872 1,151,722 6,325
00046.M2TS 4113 (0x1011) 0x24 HEVC 4.922 3,088 1,899,607 10,420
00048.M2TS 4113 (0x1011) 0x24 HEVC 4.922 1,727 1,062,237 5,850
00047.M2TS 4113 (0x1011) 0x24 HEVC 4.922 991 609,682 3,360
00049.M2TS 4113 (0x1011) 0x24 HEVC 4.922 1,857 1,142,457 6,305
00050.M2TS 4113 (0x1011) 0x24 HEVC 4.922 1,401 861,627 4,760
00051.M2TS 4113 (0x1011) 0x24 HEVC 4.922 4,171 2,566,271 14,012
00052.M2TS 4113 (0x1011) 0x24 HEVC 4.922 2,352 1,447,207 7,941
00053.M2TS 4113 (0x1011) 0x24 HEVC 4.922 3,394 2,087,730 11,426
00054.M2TS 4113 (0x1011) 0x24 HEVC 4.922 1,394 857,527 4,775
00055.M2TS 4113 (0x1011) 0x24 HEVC 4.922 1,691 1,040,342 5,760
00056.M2TS 4113 (0x1011) 0x24 HEVC 4.922 1,957 1,203,822 6,610
00057.M2TS 4113 (0x1011) 0x24 HEVC 4.922 1,368 841,792 4,615
00058.M2TS 4113 (0x1011) 0x24 HEVC 4.922 3,226 1,984,489 10,840
00059.M2TS 4113 (0x1011) 0x24 HEVC 4.922 1,364 839,102 4,640
00060.M2TS 4113 (0x1011) 0x24 HEVC 4.922 976 600,372 3,360
00061.M2TS 4113 (0x1011) 0x24 HEVC 4.922 2,252 1,385,127 7,605
00062.M2TS 4113 (0x1011) 0x24 HEVC 4.922 1,638 1,007,977 5,570
00063.M2TS 4113 (0x1011) 0x24 HEVC 4.922 1,980 1,217,927 6,700
00064.M2TS 4113 (0x1011) 0x24 HEVC 4.922 1,348 829,187 4,630
00065.M2TS 4113 (0x1011) 0x24 HEVC 4.922 2,676 1,646,487 9,035
00066.M2TS 4113 (0x1011) 0x24 HEVC 4.922 2,138 1,315,187 7,235
00067.M2TS 4113 (0x1011) 0x24 HEVC 4.922 3,442 2,117,513 11,568
00068.M2TS 4113 (0x1011) 0x24 HEVC 4.922 1,411 868,257 4,830
00069.M2TS 4113 (0x1011) 0x24 HEVC 4.922 1,776 1,092,632 6,040
00070.M2TS 4113 (0x1011) 0x24 HEVC 4.922 1,314 808,192 4,505
00071.M2TS 4113 (0x1011) 0x24 HEVC 4.922 3,763 2,315,260 12,669
00072.M2TS 4113 (0x1011) 0x24 HEVC 4.922 3,515 2,162,437 11,845
00073.M2TS 4113 (0x1011) 0x24 HEVC 4.922 1,906 1,172,657 6,440
00074.M2TS 4113 (0x1011) 0x24 HEVC 4.922 1,704 1,048,112 5,746
00075.M2TS 4113 (0x1011) 0x24 HEVC 4.922 1,124 691,497 3,805
00076.M2TS 4113 (0x1011) 0x24 HEVC 4.922 2,581 1,587,562 8,720
00077.M2TS 4113 (0x1011) 0x24 HEVC 4.922 1,969 1,211,132 6,685
00078.M2TS 4113 (0x1011) 0x24 HEVC 4.922 2,076 1,277,032 6,990
00079.M2TS 4113 (0x1011) 0x24 HEVC 4.922 899 552,977 3,075
00080.M2TS 4113 (0x1011) 0x24 HEVC 4.922 1,705 1,048,652 5,795
00081.M2TS 4113 (0x1011) 0x24 HEVC 4.922 3,128 1,924,372 10,550
00082.M2TS 4113 (0x1011) 0x24 HEVC 4.922 1,284 789,627 4,410
00083.M2TS 4113 (0x1011) 0x24 HEVC 4.922 2,239 1,377,677 7,535
00084.M2TS 4113 (0x1011) 0x24 HEVC 4.922 1,122 690,372 3,810
00085.M2TS 4113 (0x1011) 0x24 HEVC 4.922 3,736 2,298,252 12,539
00086.M2TS 4113 (0x1011) 0x24 HEVC 4.922 2,051 1,262,012 6,945
00087.M2TS 4113 (0x1011) 0x24 HEVC 4.922 2,794 1,718,927 9,405
00088.M2TS 4113 (0x1011) 0x24 HEVC 4.922 1,827 1,124,107 6,205
00089.M2TS 4113 (0x1011) 0x24 HEVC 4.922 2,224 1,368,412 7,530
00090.M2TS 4113 (0x1011) 0x24 HEVC 4.922 1,861 1,144,677 6,335
00091.M2TS 4113 (0x1011) 0x24 HEVC 4.922 3,072 1,889,883 10,324
00092.M2TS 4113 (0x1011) 0x24 HEVC 4.922 2,956 1,818,270 9,934
00003.M2TS 4113 (0x1011) 0x24 HEVC 0.167 215 4,482 29

<---- END FORUMS PASTE ---->

QUICK SUMMARY:

Disc Title: Scarface
Disc Label: Scarface.1983.MULTI.COMPLETE.UHD.BLURAY-GLiMMER
Disc Size: 93,948,302,770 bytes
Protection: AACS2
Playlist: 00077.MPLS
Size: 77,850,432 bytes
Length: 0:05:25.575
Total Bitrate: 1.91 Mbps
Video: MPEG-H HEVC Video / 1728 kbps / 2160p / 23.976 fps / 16:9 / Main 10 @ Level 5.1 @ High / 10 bits / HDR10 / BT.2020

********************
PLAYLIST: 00011.MPLS
********************

<--- BEGIN FORUMS PASTE --->

Total Video
Title Codec Length Movie Size Disc Size Bitrate Bitrate Main Audio Track Secondary Audio Track
----- ------ ------- -------------- -------------- ------- ------- ------------------ ---------------------
00011.MPLS HEVC 0:00:24 142,972,416 93,948,302,770 47.12 44.10 DD AC3 5.1 640Kbps

DISC INFO:

Disc Title: Scarface
Disc Label: Scarface.1983.MULTI.COMPLETE.UHD.BLURAY-GLiMMER
Disc Size: 93,948,302,770 bytes
Protection: AACS2
Extras: Ultra HD, BD-Java
BDInfo: 0.7.5.5

PLAYLIST REPORT:

Name: 00011.MPLS
Length: 0:00:24.274 (h:m:s.ms)
Size: 142,972,416 bytes
Total Bitrate: 47.12 Mbps

VIDEO:

Codec Bitrate Description
----- ------- -----------
MPEG-H HEVC Video 44096 kbps 2160p / 23.976 fps / 16:9 / Main 10 @ Level 5.1 @ High / 10 bits / HDR10 / BT.2020

AUDIO:

Codec Language Bitrate Description
----- -------- ------- -----------
Dolby Digital Audio English 640 kbps 5.1 / 48 kHz / 640 kbps / DN -27dB

FILES:

Name Time In Length Size Total Bitrate
---- ------- ------ ---- -------------
00004.M2TS 0:00:00.000 0:00:24.024 142,964,352 47,442
00003.M2TS 0:00:24.024 0:00:00.250 8,064 193

CHAPTERS:

Number Time In Length Avg Video Rate Max 1-Sec Rate Max 1-Sec Time Max 5-Sec Rate Max 5-Sec Time Max 10Sec Rate Max 10Sec Time Avg Frame Size Max Frame Size Max Frame Time
------ ------- ------ -------------- -------------- -------------- -------------- -------------- -------------- -------------- -------------- -------------- --------------
1 0:00:00.000 0:00:24.274 44,399 kbps 93,609 kbps 00:00:22.147 72,826 kbps 00:00:18.268 65,056 kbps 00:00:13.388 0 bytes 1,772,290 bytes 00:00:18.309

STREAM DIAGNOSTICS:

File PID Type Codec Language Seconds Bitrate Bytes Packets
---- --- ---- ----- -------- -------------- -------------- ------------- -----
00004.M2TS 4113 (0x1011) 0x24 HEVC 23.941 45,111 134,998,980 734,042
00004.M2TS 4352 (0x1100) 0x81 AC3 eng (English) 23.941 642 1,922,560 11,265
00003.M2TS 4113 (0x1011) 0x24 HEVC 0.167 215 4,482 29

<---- END FORUMS PASTE ---->

QUICK SUMMARY:

Disc Title: Scarface
Disc Label: Scarface.1983.MULTI.COMPLETE.UHD.BLURAY-GLiMMER
Disc Size: 93,948,302,770 bytes
Protection: AACS2
Playlist: 00011.MPLS
Size: 142,972,416 bytes
Length: 0:00:24.274
Total Bitrate: 47.12 Mbps
Video: MPEG-H HEVC Video / 44096 kbps / 2160p / 23.976 fps / 16:9 / Main 10 @ Level 5.1 @ High / 10 bits / HDR10 / BT.2020
Audio: English / Dolby Digital Audio / 5.1 / 48 kHz / 640 kbps / DN -27dB

********************
PLAYLIST: 00164.MPLS
********************

<--- BEGIN FORUMS PASTE --->

Total Video
Title Codec Length Movie Size Disc Size Bitrate Bitrate Main Audio Track Secondary Audio Track
----- ------ ------- -------------- -------------- ------- ------- ------------------ ---------------------
00164.MPLS HEVC 0:05:25 55,250,688 93,948,302,770 1.36 1.21

DISC INFO:

Disc Title: Scarface
Disc Label: Scarface.1983.MULTI.COMPLETE.UHD.BLURAY-GLiMMER
Disc Size: 93,948,302,770 bytes
Protection: AACS2
Extras: Ultra HD, BD-Java
BDInfo: 0.7.5.5

PLAYLIST REPORT:

Name: 00164.MPLS
Length: 0:05:25.324 (h:m:s.ms)
Size: 55,250,688 bytes
Total Bitrate: 1.36 Mbps

VIDEO:

Codec Bitrate Description
----- ------- -----------
MPEG-H HEVC Video 1210 kbps 2160p / 23.976 fps / 16:9 / Main 10 @ Level 5.1 @ High / 10 bits / BT.709

FILES:

Name Time In Length Size Total Bitrate
---- ------- ------ ---- -------------
00221.M2TS 0:00:00.000 0:00:05.004 893,952 1,405
00222.M2TS 0:00:05.004 0:00:05.004 878,976 1,382
00223.M2TS 0:00:10.009 0:00:05.004 997,440 1,568
00224.M2TS 0:00:15.014 0:00:05.004 820,416 1,290
00225.M2TS 0:00:20.019 0:00:05.004 760,512 1,196
00226.M2TS 0:00:25.024 0:00:05.004 839,232 1,319
00227.M2TS 0:00:30.029 0:00:05.004 766,272 1,205
00228.M2TS 0:00:35.034 0:00:05.004 893,952 1,405
00229.M2TS 0:00:40.039 0:00:05.004 742,272 1,167
00230.M2TS 0:00:45.044 0:00:05.004 942,336 1,482
00231.M2TS 0:00:50.049 0:00:05.004 819,840 1,289
00232.M2TS 0:00:55.054 0:00:05.004 1,040,640 1,636
00233.M2TS 0:01:00.059 0:00:05.004 785,088 1,234
00234.M2TS 0:01:05.064 0:00:05.004 721,920 1,135
00235.M2TS 0:01:10.069 0:00:05.004 697,152 1,096
00236.M2TS 0:01:15.074 0:00:05.004 888,768 1,397
00237.M2TS 0:01:20.079 0:00:05.004 893,952 1,405
00238.M2TS 0:01:25.084 0:00:05.004 908,736 1,429
00239.M2TS 0:01:30.089 0:00:05.004 938,112 1,475
00240.M2TS 0:01:35.094 0:00:05.004 766,464 1,205
00241.M2TS 0:01:40.099 0:00:05.004 893,760 1,405
00242.M2TS 0:01:45.104 0:00:05.004 834,624 1,312
00243.M2TS 0:01:50.109 0:00:05.004 889,344 1,398
00244.M2TS 0:01:55.114 0:00:05.004 1,001,856 1,575
00245.M2TS 0:02:00.119 0:00:05.004 588,672 926
00246.M2TS 0:02:05.124 0:00:05.004 780,096 1,226
00247.M2TS 0:02:10.129 0:00:05.004 795,456 1,251
00248.M2TS 0:02:15.134 0:00:05.004 814,656 1,281
00249.M2TS 0:02:20.139 0:00:05.004 727,104 1,143
00250.M2TS 0:02:25.144 0:00:05.004 854,208 1,343
00251.M2TS 0:02:30.149 0:00:05.004 893,952 1,405
00252.M2TS 0:02:35.154 0:00:05.004 829,248 1,304
00253.M2TS 0:02:40.159 0:00:05.004 898,752 1,413
00254.M2TS 0:02:45.164 0:00:05.004 884,352 1,390
00255.M2TS 0:02:50.169 0:00:05.004 725,952 1,141
00256.M2TS 0:02:55.174 0:00:05.004 785,088 1,234
00257.M2TS 0:03:00.179 0:00:05.004 820,416 1,290
00258.M2TS 0:03:05.184 0:00:05.004 820,416 1,290
00259.M2TS 0:03:10.189 0:00:05.004 893,952 1,405
00260.M2TS 0:03:15.194 0:00:05.004 890,496 1,400
00261.M2TS 0:03:20.199 0:00:05.004 884,352 1,390
00262.M2TS 0:03:25.204 0:00:05.004 893,952 1,405
00263.M2TS 0:03:30.209 0:00:05.004 893,376 1,405
00264.M2TS 0:03:35.214 0:00:05.004 648,192 1,019
00265.M2TS 0:03:40.219 0:00:05.004 893,952 1,405
00266.M2TS 0:03:45.224 0:00:05.004 888,768 1,397
00267.M2TS 0:03:50.229 0:00:05.004 785,088 1,234
00268.M2TS 0:03:55.234 0:00:05.004 746,304 1,173
00269.M2TS 0:04:00.239 0:00:05.004 893,952 1,405
00270.M2TS 0:04:05.244 0:00:05.004 997,440 1,568
00271.M2TS 0:04:10.249 0:00:05.004 943,104 1,483
00272.M2TS 0:04:15.254 0:00:05.004 878,976 1,382
00273.M2TS 0:04:20.259 0:00:05.004 893,952 1,405
00274.M2TS 0:04:25.264 0:00:05.004 775,104 1,219
00275.M2TS 0:04:30.269 0:00:05.004 893,952 1,405
00276.M2TS 0:04:35.274 0:00:05.004 893,952 1,405
00277.M2TS 0:04:40.279 0:00:05.004 893,952 1,405
00278.M2TS 0:04:45.284 0:00:05.004 893,952 1,405
00279.M2TS 0:04:50.289 0:00:05.004 893,952 1,405
00280.M2TS 0:04:55.294 0:00:05.004 893,952 1,405
00281.M2TS 0:05:00.299 0:00:05.004 893,952 1,405
00282.M2TS 0:05:05.304 0:00:05.004 893,952 1,405
00283.M2TS 0:05:10.309 0:00:05.004 893,952 1,405
00284.M2TS 0:05:15.314 0:00:05.004 785,088 1,234
00023.M2TS 0:05:20.319 0:00:05.004 785,088 1,234

CHAPTERS:

Number Time In Length Avg Video Rate Max 1-Sec Rate Max 1-Sec Time Max 5-Sec Rate Max 5-Sec Time Max 10Sec Rate Max 10Sec Time Avg Frame Size Max Frame Size Max Frame Time
------ ------- ------ -------------- -------------- -------------- -------------- -------------- -------------- -------------- -------------- -------------- --------------
1 0:00:00.000 0:05:25.324 1,231 kbps 1,890 kbps 00:00:55.013 1,529 kbps 00:00:55.013 1,414 kbps 00:04:06.120 0 bytes 225,782 bytes 00:00:55.972

STREAM DIAGNOSTICS:

File PID Type Codec Language Seconds Bitrate Bytes Packets
---- --- ---- ----- -------- -------------- -------------- ------------- -----
00221.M2TS 4113 (0x1011) 0x24 HEVC 4.922 1,627 1,000,757 5,505
00222.M2TS 4113 (0x1011) 0x24 HEVC 4.922 1,603 985,857 5,415
00223.M2TS 4113 (0x1011) 0x24 HEVC 4.922 1,829 1,124,927 6,170
00224.M2TS 4113 (0x1011) 0x24 HEVC 4.922 1,486 914,072 5,020
00225.M2TS 4113 (0x1011) 0x24 HEVC 4.922 1,375 845,782 4,660
00226.M2TS 4113 (0x1011) 0x24 HEVC 4.922 1,528 940,307 5,170
00227.M2TS 4113 (0x1011) 0x24 HEVC 4.922 1,378 847,612 4,670
00228.M2TS 4113 (0x1011) 0x24 HEVC 4.922 1,627 1,000,757 5,505
00229.M2TS 4113 (0x1011) 0x24 HEVC 4.922 1,331 818,527 4,510
00230.M2TS 4113 (0x1011) 0x24 HEVC 4.922 1,730 1,064,522 5,845
00231.M2TS 4113 (0x1011) 0x24 HEVC 4.922 1,487 914,982 5,035
00232.M2TS 4113 (0x1011) 0x24 HEVC 4.922 1,922 1,182,642 6,485
00233.M2TS 4113 (0x1011) 0x24 HEVC 4.922 1,418 872,192 4,820
00234.M2TS 4113 (0x1011) 0x24 HEVC 4.922 1,289 793,212 4,385
00235.M2TS 4113 (0x1011) 0x24 HEVC 4.922 1,248 767,537 4,230
00236.M2TS 4113 (0x1011) 0x24 HEVC 4.922 1,623 998,437 5,484
00237.M2TS 4113 (0x1011) 0x24 HEVC 4.922 1,627 1,000,757 5,505
00238.M2TS 4113 (0x1011) 0x24 HEVC 4.922 1,660 1,021,167 5,600
00239.M2TS 4113 (0x1011) 0x24 HEVC 4.922 1,713 1,053,707 5,795
00240.M2TS 4113 (0x1011) 0x24 HEVC 4.922 1,376 846,577 4,665
00241.M2TS 4113 (0x1011) 0x24 HEVC 4.922 1,630 1,002,932 5,510
00242.M2TS 4113 (0x1011) 0x24 HEVC 4.922 1,516 932,737 5,130
00243.M2TS 4113 (0x1011) 0x24 HEVC 4.922 1,622 997,792 5,465
00244.M2TS 4113 (0x1011) 0x24 HEVC 4.922 1,841 1,132,372 6,215
00245.M2TS 4113 (0x1011) 0x24 HEVC 4.922 1,037 638,262 3,535
00246.M2TS 4113 (0x1011) 0x24 HEVC 4.922 1,413 869,417 4,790
00247.M2TS 4113 (0x1011) 0x24 HEVC 4.922 1,437 884,082 4,870
00248.M2TS 4113 (0x1011) 0x24 HEVC 4.922 1,480 910,507 5,014
00249.M2TS 4113 (0x1011) 0x24 HEVC 4.922 1,298 798,452 4,410
00250.M2TS 4113 (0x1011) 0x24 HEVC 4.922 1,558 958,742 5,260
00251.M2TS 4113 (0x1011) 0x24 HEVC 4.922 1,627 1,000,757 5,505
00252.M2TS 4113 (0x1011) 0x24 HEVC 4.922 1,513 930,567 5,110
00253.M2TS 4113 (0x1011) 0x24 HEVC 4.922 1,641 1,009,402 5,540
00254.M2TS 4113 (0x1011) 0x24 HEVC 4.922 1,608 989,037 5,435
00255.M2TS 4113 (0x1011) 0x24 HEVC 4.922 1,304 801,922 4,440
00256.M2TS 4113 (0x1011) 0x24 HEVC 4.922 1,418 872,192 4,820
00257.M2TS 4113 (0x1011) 0x24 HEVC 4.922 1,486 914,072 5,020
00258.M2TS 4113 (0x1011) 0x24 HEVC 4.922 1,484 912,827 5,020
00259.M2TS 4113 (0x1011) 0x24 HEVC 4.922 1,627 1,000,757 5,505
00260.M2TS 4113 (0x1011) 0x24 HEVC 4.922 1,620 996,497 5,495
00261.M2TS 4113 (0x1011) 0x24 HEVC 4.922 1,608 989,037 5,435
00262.M2TS 4113 (0x1011) 0x24 HEVC 4.922 1,627 1,000,757 5,505
00263.M2TS 4113 (0x1011) 0x24 HEVC 4.922 1,593 979,957 5,384
00264.M2TS 4113 (0x1011) 0x24 HEVC 4.922 1,148 706,017 3,905
00265.M2TS 4113 (0x1011) 0x24 HEVC 4.922 1,627 1,000,757 5,505
00266.M2TS 4113 (0x1011) 0x24 HEVC 4.922 1,623 998,437 5,484
00267.M2TS 4113 (0x1011) 0x24 HEVC 4.922 1,418 872,192 4,820
00268.M2TS 4113 (0x1011) 0x24 HEVC 4.922 1,334 820,629 4,534
00269.M2TS 4113 (0x1011) 0x24 HEVC 4.922 1,627 1,000,757 5,505
00270.M2TS 4113 (0x1011) 0x24 HEVC 4.922 1,829 1,124,927 6,170
00271.M2TS 4113 (0x1011) 0x24 HEVC 4.922 1,726 1,061,832 5,825
00272.M2TS 4113 (0x1011) 0x24 HEVC 4.922 1,603 985,857 5,415
00273.M2TS 4113 (0x1011) 0x24 HEVC 4.922 1,629 1,002,312 5,505
00274.M2TS 4113 (0x1011) 0x24 HEVC 4.922 1,404 864,037 4,760
00275.M2TS 4113 (0x1011) 0x24 HEVC 4.922 1,627 1,000,757 5,505
00276.M2TS 4113 (0x1011) 0x24 HEVC 4.922 1,627 1,000,757 5,505
00277.M2TS 4113 (0x1011) 0x24 HEVC 4.922 1,627 1,000,757 5,505
00278.M2TS 4113 (0x1011) 0x24 HEVC 4.922 1,627 1,000,757 5,505
00279.M2TS 4113 (0x1011) 0x24 HEVC 4.922 1,627 1,000,757 5,505
00280.M2TS 4113 (0x1011) 0x24 HEVC 4.922 1,627 1,000,757 5,505
00281.M2TS 4113 (0x1011) 0x24 HEVC 4.922 1,627 1,000,757 5,505
00282.M2TS 4113 (0x1011) 0x24 HEVC 4.922 1,627 1,000,757 5,505
00283.M2TS 4113 (0x1011) 0x24 HEVC 4.922 1,627 1,000,757 5,505
00284.M2TS 4113 (0x1011) 0x24 HEVC 4.922 1,418 872,192 4,820
00023.M2TS 4113 (0x1011) 0x24 HEVC 4.922 1,418 872,192 4,820

<---- END FORUMS PASTE ---->

QUICK SUMMARY:

Disc Title: Scarface
Disc Label: Scarface.1983.MULTI.COMPLETE.UHD.BLURAY-GLiMMER
Disc Size: 93,948,302,770 bytes
Protection: AACS2
Playlist: 00164.MPLS
Size: 55,250,688 bytes
Length: 0:05:25.324
Total Bitrate: 1.36 Mbps
Video: MPEG-H HEVC Video / 1210 kbps / 2160p / 23.976 fps / 16:9 / Main 10 @ Level 5.1 @ High / 10 bits / BT.709

********************
PLAYLIST: 00165.MPLS
********************

<--- BEGIN FORUMS PASTE --->

Total Video
Title Codec Length Movie Size Disc Size Bitrate Bitrate Main Audio Track Secondary Audio Track
----- ------ ------- -------------- -------------- ------- ------- ------------------ ---------------------
00165.MPLS HEVC 0:05:25 32,010,816 93,948,302,770 0.79 0.66

DISC INFO:

Disc Title: Scarface
Disc Label: Scarface.1983.MULTI.COMPLETE.UHD.BLURAY-GLiMMER
Disc Size: 93,948,302,770 bytes
Protection: AACS2
Extras: Ultra HD, BD-Java
BDInfo: 0.7.5.5

PLAYLIST REPORT:

Name: 00165.MPLS
Length: 0:05:25.324 (h:m:s.ms)
Size: 32,010,816 bytes
Total Bitrate: 0.79 Mbps

VIDEO:

Codec Bitrate Description
----- ------- -----------
MPEG-H HEVC Video 665 kbps 2160p / 23.976 fps / 16:9 / Main 10 @ Level 5.1 @ High / 10 bits / BT.709

FILES:

Name Time In Length Size Total Bitrate
---- ------- ------ ---- -------------
00157.M2TS 0:00:00.000 0:00:05.004 485,952 764
00158.M2TS 0:00:05.004 0:00:05.004 514,752 809
00159.M2TS 0:00:10.009 0:00:05.004 509,952 802
00160.M2TS 0:00:15.014 0:00:05.004 446,592 702
00161.M2TS 0:00:20.019 0:00:05.004 466,368 733
00162.M2TS 0:00:25.024 0:00:05.004 510,336 802
00163.M2TS 0:00:30.029 0:00:05.004 455,616 716
00164.M2TS 0:00:35.034 0:00:05.004 529,728 833
00165.M2TS 0:00:40.039 0:00:05.004 466,560 734
00166.M2TS 0:00:45.044 0:00:05.004 559,488 880
00167.M2TS 0:00:50.049 0:00:05.004 475,968 748
00168.M2TS 0:00:55.054 0:00:05.004 509,952 802
00169.M2TS 0:01:00.059 0:00:05.004 466,368 733
00170.M2TS 0:01:05.064 0:00:05.004 441,024 693
00171.M2TS 0:01:10.069 0:00:05.004 406,464 639
00172.M2TS 0:01:15.074 0:00:05.004 504,768 794
00173.M2TS 0:01:20.079 0:00:05.004 485,952 764
00174.M2TS 0:01:25.084 0:00:05.004 594,432 935
00175.M2TS 0:01:30.089 0:00:05.004 559,104 879
00176.M2TS 0:01:35.094 0:00:05.004 386,880 608
00177.M2TS 0:01:40.099 0:00:05.004 530,112 833
00178.M2TS 0:01:45.104 0:00:05.004 549,888 865
00179.M2TS 0:01:50.109 0:00:05.004 603,264 948
00180.M2TS 0:01:55.114 0:00:05.004 525,120 826
00181.M2TS 0:02:00.119 0:00:05.004 421,824 663
00182.M2TS 0:02:05.124 0:00:05.004 505,920 795
00183.M2TS 0:02:10.129 0:00:05.004 495,552 779
00184.M2TS 0:02:15.134 0:00:05.004 500,544 787
00185.M2TS 0:02:20.139 0:00:05.004 490,176 771
00186.M2TS 0:02:25.144 0:00:05.004 540,288 849
00187.M2TS 0:02:30.149 0:00:05.004 485,952 764
00188.M2TS 0:02:35.154 0:00:05.004 554,112 871
00189.M2TS 0:02:40.159 0:00:05.004 530,112 833
00190.M2TS 0:02:45.164 0:00:05.004 500,544 787
00191.M2TS 0:02:50.169 0:00:05.004 416,640 655
00192.M2TS 0:02:55.174 0:00:05.004 466,368 733
00193.M2TS 0:03:00.179 0:00:05.004 446,592 702
00194.M2TS 0:03:05.184 0:00:05.004 514,752 809
00195.M2TS 0:03:10.189 0:00:05.004 485,952 764
00196.M2TS 0:03:15.194 0:00:05.004 519,744 817
00197.M2TS 0:03:20.199 0:00:05.004 500,544 787
00198.M2TS 0:03:25.204 0:00:05.004 485,952 764
00199.M2TS 0:03:30.209 0:00:05.004 545,088 857
00200.M2TS 0:03:35.214 0:00:05.004 382,080 601
00201.M2TS 0:03:40.219 0:00:05.004 485,952 764
00202.M2TS 0:03:45.224 0:00:05.004 504,768 794
00203.M2TS 0:03:50.229 0:00:05.004 466,368 733
00204.M2TS 0:03:55.234 0:00:05.004 466,560 734
00205.M2TS 0:04:00.239 0:00:05.004 485,952 764
00206.M2TS 0:04:05.244 0:00:05.004 509,952 802
00207.M2TS 0:04:10.249 0:00:05.004 446,208 702
00208.M2TS 0:04:15.254 0:00:05.004 514,752 809
00209.M2TS 0:04:20.259 0:00:05.004 510,528 803
00210.M2TS 0:04:25.264 0:00:05.004 540,096 849
00211.M2TS 0:04:30.269 0:00:05.004 485,952 764
00212.M2TS 0:04:35.274 0:00:05.004 485,952 764
00213.M2TS 0:04:40.279 0:00:05.004 485,952 764
00214.M2TS 0:04:45.284 0:00:05.004 485,952 764
00215.M2TS 0:04:50.289 0:00:05.004 485,952 764
00216.M2TS 0:04:55.294 0:00:05.004 485,952 764
00217.M2TS 0:05:00.299 0:00:05.004 485,952 764
00218.M2TS 0:05:05.304 0:00:05.004 485,952 764
00219.M2TS 0:05:10.309 0:00:05.004 485,952 764
00220.M2TS 0:05:15.314 0:00:05.004 466,368 733
00019.M2TS 0:05:20.319 0:00:05.004 466,368 733

CHAPTERS:

Number Time In Length Avg Video Rate Max 1-Sec Rate Max 1-Sec Time Max 5-Sec Rate Max 5-Sec Time Max 10Sec Rate Max 10Sec Time Avg Frame Size Max Frame Size Max Frame Time
------ ------- ------ -------------- -------------- -------------- -------------- -------------- -------------- -------------- -------------- -------------- --------------
1 0:00:00.000 0:05:25.324 676 kbps 1,044 kbps 00:01:50.068 850 kbps 00:01:50.819 806 kbps 00:01:44.020 0 bytes 120,972 bytes 00:01:51.027

STREAM DIAGNOSTICS:

File PID Type Codec Language Seconds Bitrate Bytes Packets
---- --- ---- ----- -------- -------------- -------------- ------------- -----
00157.M2TS 4113 (0x1011) 0x24 HEVC 4.922 826 507,857 2,850
00158.M2TS 4113 (0x1011) 0x24 HEVC 4.922 890 547,332 3,060
00159.M2TS 4113 (0x1011) 0x24 HEVC 4.922 878 540,222 3,025
00160.M2TS 4113 (0x1011) 0x24 HEVC 4.922 749 460,937 2,595
00161.M2TS 4113 (0x1011) 0x24 HEVC 4.922 787 483,912 2,720
00162.M2TS 4113 (0x1011) 0x24 HEVC 4.922 874 537,937 3,015
00163.M2TS 4113 (0x1011) 0x24 HEVC 4.922 775 476,482 2,680
00164.M2TS 4113 (0x1011) 0x24 HEVC 4.922 916 563,542 3,150
00165.M2TS 4113 (0x1011) 0x24 HEVC 4.922 784 482,187 2,715
00166.M2TS 4113 (0x1011) 0x24 HEVC 4.922 971 597,467 3,335
00167.M2TS 4113 (0x1011) 0x24 HEVC 4.922 808 496,827 2,790
00168.M2TS 4113 (0x1011) 0x24 HEVC 4.922 877 539,662 3,025
00169.M2TS 4113 (0x1011) 0x24 HEVC 4.922 786 483,402 2,720
00170.M2TS 4113 (0x1011) 0x24 HEVC 4.922 745 458,182 2,580
00171.M2TS 4113 (0x1011) 0x24 HEVC 4.922 678 417,292 2,360
00172.M2TS 4113 (0x1011) 0x24 HEVC 4.922 870 535,157 3,000
00173.M2TS 4113 (0x1011) 0x24 HEVC 4.922 826 507,857 2,850
00174.M2TS 4113 (0x1011) 0x24 HEVC 4.922 1,034 635,942 3,545
00175.M2TS 4113 (0x1011) 0x24 HEVC 4.922 976 600,302 3,345
00176.M2TS 4113 (0x1011) 0x24 HEVC 4.922 639 393,322 2,230
00177.M2TS 4113 (0x1011) 0x24 HEVC 4.922 914 562,502 3,140
00178.M2TS 4113 (0x1011) 0x24 HEVC 4.922 950 584,277 3,265
00179.M2TS 4113 (0x1011) 0x24 HEVC 4.922 1,061 652,957 3,635
00180.M2TS 4113 (0x1011) 0x24 HEVC 4.922 904 556,247 3,110
00181.M2TS 4113 (0x1011) 0x24 HEVC 4.922 703 432,592 2,440
00182.M2TS 4113 (0x1011) 0x24 HEVC 4.922 862 530,222 2,970
00183.M2TS 4113 (0x1011) 0x24 HEVC 4.922 847 521,302 2,920
00184.M2TS 4113 (0x1011) 0x24 HEVC 4.922 856 526,487 2,950
00185.M2TS 4113 (0x1011) 0x24 HEVC 4.922 843 518,407 2,900
00186.M2TS 4113 (0x1011) 0x24 HEVC 4.922 933 574,092 3,195
00187.M2TS 4113 (0x1011) 0x24 HEVC 4.922 826 507,857 2,850
00188.M2TS 4113 (0x1011) 0x24 HEVC 4.922 966 594,562 3,315
00189.M2TS 4113 (0x1011) 0x24 HEVC 4.922 914 562,262 3,140
00190.M2TS 4113 (0x1011) 0x24 HEVC 4.922 856 526,552 2,950
00191.M2TS 4113 (0x1011) 0x24 HEVC 4.922 695 427,437 2,415
00192.M2TS 4113 (0x1011) 0x24 HEVC 4.922 786 483,402 2,720
00193.M2TS 4113 (0x1011) 0x24 HEVC 4.922 749 460,937 2,595
00194.M2TS 4113 (0x1011) 0x24 HEVC 4.922 888 546,242 3,060
00195.M2TS 4113 (0x1011) 0x24 HEVC 4.922 826 507,857 2,850
00196.M2TS 4113 (0x1011) 0x24 HEVC 4.922 898 552,207 3,090
00197.M2TS 4113 (0x1011) 0x24 HEVC 4.922 856 526,552 2,950
00198.M2TS 4113 (0x1011) 0x24 HEVC 4.922 826 507,857 2,850
00199.M2TS 4113 (0x1011) 0x24 HEVC 4.922 943 580,152 3,230
00200.M2TS 4113 (0x1011) 0x24 HEVC 4.922 628 386,637 2,195
00201.M2TS 4113 (0x1011) 0x24 HEVC 4.922 826 507,857 2,850
00202.M2TS 4113 (0x1011) 0x24 HEVC 4.922 870 535,157 3,000
00203.M2TS 4113 (0x1011) 0x24 HEVC 4.922 786 483,402 2,720
00204.M2TS 4113 (0x1011) 0x24 HEVC 4.922 786 483,602 2,715
00205.M2TS 4113 (0x1011) 0x24 HEVC 4.922 826 507,857 2,850
00206.M2TS 4113 (0x1011) 0x24 HEVC 4.922 878 540,222 3,025
00207.M2TS 4113 (0x1011) 0x24 HEVC 4.922 752 462,847 2,605
00208.M2TS 4113 (0x1011) 0x24 HEVC 4.922 890 547,332 3,060
00209.M2TS 4113 (0x1011) 0x24 HEVC 4.922 874 537,907 3,010
00210.M2TS 4113 (0x1011) 0x24 HEVC 4.922 932 573,642 3,200
00211.M2TS 4113 (0x1011) 0x24 HEVC 4.922 826 507,857 2,850
00212.M2TS 4113 (0x1011) 0x24 HEVC 4.922 826 507,857 2,850
00213.M2TS 4113 (0x1011) 0x24 HEVC 4.922 826 507,857 2,850
00214.M2TS 4113 (0x1011) 0x24 HEVC 4.922 826 507,857 2,850
00215.M2TS 4113 (0x1011) 0x24 HEVC 4.922 826 507,857 2,850
00216.M2TS 4113 (0x1011) 0x24 HEVC 4.922 826 507,857 2,850
00217.M2TS 4113 (0x1011) 0x24 HEVC 4.922 826 507,857 2,850
00218.M2TS 4113 (0x1011) 0x24 HEVC 4.922 826 507,857 2,850
00219.M2TS 4113 (0x1011) 0x24 HEVC 4.922 826 507,857 2,850
00220.M2TS 4113 (0x1011) 0x24 HEVC 4.922 786 483,402 2,720
00019.M2TS 4113 (0x1011) 0x24 HEVC 4.922 786 483,402 2,720



Скачать Лицо со шрамом через торрент https://c.radikal.ru/c23/1910/3c/bf65aecf4e83.png Скачать, смотреть онлайн Лицо со шрамом бесплантно в хорошем качестве Описание: Весной 1980 года был открыт порт Мэйриэл Харбор, и тысячи кубинских беженцев ринулись в Соединенные Штаты на поиски Американской ... 1 10 1
Info! Золотая раздача, скачанное не засчитывается.
Торрент: Зарегистрирован [2019-11-02 10:56] · скачан: 18 раз
Статус: √ проверено
Размер: 87.5 GB
Как cкачать? Как скачать Лицо со шрамом через торрент | UTorrent

% Раздел Тема Автор DL S | L
Фильмы до 2000 г. [ 1.46 GB ] Лицо со Шрамом / Scarface | MVO | BDRip killermax2013 Скачать
3 | 0
Ultra HD (UHD: 2K, 4K, 8K) [ 78.35 GB ] Лицо со шрамом / Scarface | MVO + 6xAVO + DVO | 2160p sheker187 Скачать
1 | 0
Фильмы (HD 720p, 1080p) (48-60 fps) [ 8.34 GB ] Лицо со шрамом / Scarface | MVO | 720p 60 fps -Lexx- Скачать
3 | 0
Фильмы до 2000 г. [ 2.19 GB ] Лицо со шрамом / Scarface | | HDTV, лицензия vesta Скачать
1 | 0
Фильмы (Blu-ray, BD-Remux, HDDVD) [ 28.82 GB ] Лицо со шрамом / Scarface | | 1080p Ворон Скачать
1 | 0
Фильмы [HD 720p, 1080p] (Хороший звук DUB, MVO) [ 28.82 GB ] Лицо со шрамом / Scarface | | 1080p xyligant Скачать
1 | 0
Фильмы [HD 720p, 1080p] (Хороший звук DUB, MVO) [ 15.45 GB ] Лицо со шрамом / Scarface | | 1080p shuller Скачать
1 | 0

28-11-2019 20:33  


Отключить вcю реклaмy на сайте, в т.ч. и в плеере онлайн просмотра!

    Дорогой пользователь! Огромная просьба, поблагодарите релизера, оцените раздачу и оставьте свои комментарий, если Вы скачали Лицо со шрамом через торрент бесплатно!!
    Комментировать посты могут только пользователи прошедшие не сложную регистрацию
    Показать сообщения:    


    Лицо со шрамом через торрент
    Скачать бесплатно Лицо со шрамом
    Лицо со шрамом скачать торрент
    Лицо со шрамом смотреть онлайн
    Cкачать фильм Лицо со шрамом бесплатно
    Лицо со шрамом скачать торрент в хорошем качестве
    Лицо со шрамом смотреть онлайн бесплатно в хорошем качестве
    Вы не можете начинать темы
    Вы не можете отвечать на сообщения
    Вы не можете редактировать свои сообщения
    Вы не можете удалять свои сообщения
    Вы не можете голосовать в опросах
    Вы не можете прикреплять файлы к сообщениям
    Вы можете скачивать файлы
    Лицо со шрамом / Scarface [1983, драма, криминал, UHD Blu-ray EUR 2160p] MVO [Лицензия] смотреть онлайн, скачать торрент picoco.icu