Доктор Стрэндж

Лицензия

Добыча

Дубляж

Дом дракона

1 сезон

Тор

Дубляж

В эфире

Дубляж

Там, где раки поют

MVO

Властелин колец

1 сезон

Ultimate

pack

Рекомендуем

30

Пиратка

ВАЖНО

ВАЖНО

Ghostwire

Пиратка

jed

RePack

nioh2

RePack

RDR2

RePack

NEED FOR SPEED™ PAYBACK

RePack

скачать торрент

Кинопоиск HD

Острые козырьки 6 сезон

6 сезон

FAR CRY 6

RePack

скачать торрент

Лицензия

скачать торрент

MVO

1

1 сезон

скачать торрент

1 сезон

скачать торрент

Лицензия

  

Пустошь / Badland (Джастин Ли) [2019, Вестерн, HDRip-AVC] MVO (rus, ukr) [ОККО]

Пустошь через торрент piratbit.org

Размер: 2.15 GB | Добавлен: 1 мес. 19 д. назад | Торрент скачан:56 раз
Смотреть онлайн | Скачать   

02-11-2019 15:59 Пустошь Скачать торрент  

Пустошь
Badland

Год выпуска: 2019
Страна: США
Выпущено: Papa Octopus Productions
Жанр: Вестерн
Продолжительность: 01:57:09
Перевод: Профессиональное (многоголосое) | ОККО
Субтитры: Английские (SDH)

Режиссер: Джастин Ли

rating

В ролях: Кевин Макли, Мира Сорвино, Брюс Дерн, Уэс Стьюди, Трэйси Д. Эдкинс, Джефф Фэйи, Тони Тодд, Джеймс Руссо, Аманда Уайсс, Райан Келли

Описание: Детектива Матиаса Бричера наняли, чтобы выследить худших из военных преступников Конфедерации. Пока он бродил по Старому Западу в поисках справедливости, его решимость подверглась испытанию женщиной-первопроходчицей.

Качество: HDRip-AVC
Формат: MKV

Видео: MPEG-4 AVC, 1024×428 at 23.976 fps, x264@L4.1, ~1469 kbps
Аудио #1: Russian: 48 kHz, AC3 Dolby Digital, 3/2 (L, C, R, l, r) + LFE ch, ~384 Kbps | MVO | ОККО
Аудио #2: Ukrainian: 48 kHz, AC3 Dolby Digital, 3/2 (L, C, R, l, r) + LFE ch, ~384 Kbps | MVO | ОККО
Аудио #3: English: 48 kHz, AC3 Dolby Digital, 3/2 (L, C, R, l, r) + LFE ch, ~384 Kbps | Original
скриншот  скриншот  скриншот  скриншот  

x264 [info]: frame I:1141 Avg QP:13.78 size: 68342
x264 [info]: frame P:36359 Avg QP:15.47 size: 18678
x264 [info]: frame B:131039 Avg QP:17.81 size: 4072
x264 [info]: consecutive B-frames: 2.1% 1.8% 8.4% 17.7% 18.8% 43.0% 4.8% 1.2% 0.8% 0.3% 1.0%

General
Unique ID : 10949089371541335847743210671240255452 (0x83CB7C8D90168319B49A013D0CA17DC)
Complete name : K:Badland.2019.HDRip.x264.seleZen.mkv
Format : Matroska
Format version : Version 4
File size : 2.15 GiB
Duration : 1 h 58 min
Overall bit rate : 2 608 kb/s
Movie name : Badland.2019.HDRip.x264.seleZen
Encoded date : UTC 2022-10-08 17:17:33
Writing application : mkvmerge v70.0.0 ('Caught A Lite Sneeze') 64-bit
Writing library : libebml v1.4.2 + libmatroska v1.6.4
Cover : Yes
Attachments : cover.jpg / small_cover.jpg

Video
ID : 1
Format : AVC
Format/Info : Advanced Video Codec
Format profile : High@L4.1
Format settings : CABAC / 14 Ref Frames
Format settings, CABAC : Yes
Format settings, Reference : 14 frames
Codec ID : V_MPEG4/ISO/AVC
Duration : 1 h 57 min
Bit rate : 1 469 kb/s
Width : 1 024 pixels
Height : 428 pixels
Display aspect ratio : 2.40:1
Frame rate mode : Constant
Frame rate : 23.976 (24000/1001) FPS
Color space : YUV
Chroma subsampling : 4:2:0
Bit depth : 8 bits
Scan type : Progressive
Bits/(Pixel*Frame) : 0.140
Stream size : 1.20 GiB (56%)
Title : -=DoMiNo=-
Writing library : x264 core 164 r3099+55M 141af3f t_mod_New | by -=DoMiNo=- | X86_64
Encoding settings : cabac=1 / ref=14 / deblock=1:-3:-2 / analyse=0x3:0x133 / me=umh / subme=10 / psy=1 / fade_compensate=0.00 / psy_rd=1.02:0.05 / mixed_ref=1 / me_range=32 / chroma_me=1 / trellis=2 / 8x8dct=1 / cqm=0 / deadzone=21,11 / fast_pskip=1 / chroma_qp_offset=-3 / threads=17 / lookahead_threads=3 / sliced_threads=0 / nr=0 / decimate=1 / interlaced=0 / bluray_compat=0 / constrained_intra=0 / fgo=0 / bframes=10 / b_pyramid=2 / b_adapt=2 / b_bias=0 / direct=1 / weightb=1 / open_gop=0 / weightp=2 / keyint=250 / keyint_min=23 / scenecut=40 / intra_refresh=0 / rc_lookahead=60 / rc=crf / mbtree=0 / crf=17.3000 / qcomp=0.60 / qpmin=0:0:0 / qpmax=69:69:69 / qpstep=4 / vbv_maxrate=50000 / vbv_bufsize=62500 / crf_max=0.0 / nal_hrd=none / filler=0 / ip_ratio=1.40 / pb_ratio=1.30 / aq=3:0.80 / aq-sensitivity=10.00 / aq-factor=1.00:1.00:1.00 / aq2=0 / aq3=0
Language : English
Default : Yes
Forced : No
Color range : Limited
Matrix coefficients : BT.709

Audio #1
ID : 2
Format : AC-3
Format/Info : Audio Coding 3
Commercial name : Dolby Digital
Codec ID : A_AC3
Duration : 1 h 58 min
Bit rate mode : Constant
Bit rate : 384 kb/s
Channel(s) : 6 channels
Channel layout : L R C LFE Ls Rs
Sampling rate : 48.0 kHz
Frame rate : 31.250 FPS (1536 SPF)
Compression mode : Lossy
Stream size : 325 MiB (15%)
Title : MVO
Language : Russian
Service kind : Complete Main
Default : Yes
Forced : Yes

Audio #2
ID : 3
Format : AC-3
Format/Info : Audio Coding 3
Commercial name : Dolby Digital
Codec ID : A_AC3
Duration : 1 h 58 min
Bit rate mode : Constant
Bit rate : 384 kb/s
Channel(s) : 6 channels
Channel layout : L R C LFE Ls Rs
Sampling rate : 48.0 kHz
Frame rate : 31.250 FPS (1536 SPF)
Compression mode : Lossy
Stream size : 325 MiB (15%)
Title : MVO
Language : Ukrainian
Service kind : Complete Main
Default : No
Forced : No

Audio #3
ID : 4
Format : AC-3
Format/Info : Audio Coding 3
Commercial name : Dolby Digital
Codec ID : A_AC3
Duration : 1 h 57 min
Bit rate mode : Constant
Bit rate : 384 kb/s
Channel(s) : 6 channels
Channel layout : L R C LFE Ls Rs
Sampling rate : 48.0 kHz
Frame rate : 31.250 FPS (1536 SPF)
Compression mode : Lossy
Stream size : 322 MiB (15%)
Title : Original
Language : English
Service kind : Complete Main
Default : No
Forced : No

Text
ID : 5
Format : UTF-8
Codec ID : S_TEXT/UTF8
Codec ID/Info : UTF-8 Plain Text
Duration : 1 h 54 min
Bit rate : 34 b/s
Count of elements : 937
Stream size : 28.7 KiB (0%)
Title : SDH
Language : English
Default : No
Forced : No

Menu
00:00:00.000 : en:Chapter 01
00:01:48.525 : en:Chapter 02
00:14:26.783 : en:Chapter 03
00:47:35.936 : en:Chapter 04
01:06:50.089 : en:Chapter 05
01:25:13.442 : en:Chapter 06
01:48:47.730 : en:Chapter 07
01:54:24.733 : en:Chapter 08



Скачать Пустошь через торрент https://i120.fastpic.org/big/2022/1008/1b/14340b70c0ec5d74547fb5404a2f151b.jpg Скачать, смотреть онлайн Пустошь бесплантно в хорошем качестве Описание: Детектива Матиаса Бричера наняли, чтобы выследить худших из военных преступников Конфедерации. Пока он бродил по Старому Западу в ... 9.8 10 4
Торрент: Зарегистрирован [2022-10-08 18:06] · скачан: 56 раз
Статус: √ проверено
Размер: 2.15 GB
Как cкачать? Как скачать Пустошь через торрент | UTorrent

% Раздел Тема Автор DL S | L
Фильмы [HD 720p, 1080p] (Хороший звук DUB, MVO) [ 10.16 GB ] Пустошь / Badland | MVO | 1080p bober100 Скачать
1 | 0
Фильмы [HD 720p, 1080p] (Хороший звук DUB, MVO) [ 5.73 GB ] Пустошь / Badland | MVO | 720p bober100 Скачать
1 | 0
Фильмы 2019-2020 [DVDrip, WEB-DLRip, HDrip] (DUB, MVO) [ 1.45 GB ] Пустошь / Badland | MVO | HDRip bober100 Скачать
1 | 0

28-11-2019 20:33  


Отключить вcю реклaмy на сайте, в т.ч. и в плеере онлайн просмотра!

    Дорогой пользователь! Огромная просьба, поблагодарите релизера, оцените раздачу и оставьте свои комментарий, если Вы скачали Пустошь через торрент бесплатно!!
    Комментировать посты могут только пользователи прошедшие не сложную регистрацию
    Показать сообщения:    


    Пустошь через торрент
    Скачать бесплатно Пустошь
    Пустошь скачать торрент
    Пустошь смотреть онлайн
    Cкачать фильм Пустошь бесплатно
    Пустошь скачать торрент в хорошем качестве
    Пустошь смотреть онлайн бесплатно в хорошем качестве
    Вы не можете начинать темы
    Вы не можете отвечать на сообщения
    Вы не можете редактировать свои сообщения
    Вы не можете удалять свои сообщения
    Вы не можете голосовать в опросах
    Вы не можете прикреплять файлы к сообщениям
    Вы можете скачивать файлы
    Пустошь / Badland [2019, Вестерн, HDRip-AVC] MVO [ОККО] смотреть онлайн, скачать торрент picoco.icu