Доктор Стрэндж

Лицензия

Добыча

Дубляж

Дом дракона

1 сезон

Тор

Дубляж

В эфире

Дубляж

Там, где раки поют

MVO

Властелин колец

1 сезон

Ultimate

pack

Рекомендуем

30

Пиратка

ВАЖНО

ВАЖНО

Ghostwire

Пиратка

jed

RePack

nioh2

RePack

RDR2

RePack

NEED FOR SPEED™ PAYBACK

RePack

скачать торрент

Кинопоиск HD

Острые козырьки 6 сезон

6 сезон

FAR CRY 6

RePack

скачать торрент

Лицензия

скачать торрент

MVO

1

1 сезон

скачать торрент

1 сезон

скачать торрент

Лицензия

  

Измени или умри / An Affair to Die For (Виктор Гарсия) [2019 г., триллер, WEB-DLRip, Профессиональный многоголосый закадровый "iTunes"]

Измени или умри через торрент piratbit.org

Размер: 703 MB | Добавлен: 3 года назад | Торрент скачан:45 раз
Смотреть онлайн | Скачать   

02-11-2019 18:36 Измени или умри Скачать торрент  

Измени или умри / An Affair to Die For
Год выпуска: 2019
Страна: Испания, Италия / Illogic Srl, Kobalt Entertainment, Martha Production
Жанр: триллер
Продолжительность: 01:22:43
Перевод: Профессиональный многоголосый закадровый (iTunes)

Режиссер: Виктор Гарсия

rating

В ролях: Клэр Форлани, Джейк Эйбел, Титус Уэлливер, Нэйтан Купер, Мелина Мэтьюз

Описание: Тайное свидание в дорогой гостинице. Жена изменяет своему мужу. Муж изменяет своей жене. Казалось бы, ничего необычного. Но что, если всё пойдёт не так?

Качество: WEB-DLRip
Формат: AVI
Видео кодек: DivX
Аудио кодек: MP3
Видео: 672x280 (2.40:1), 23.976 fps, DivX Codec 4.x ~1051 kbps avg, 0.23 bit/pixel
Аудио: 48 kHz, MPEG Layer 3, 2 ch, ~128.00 kbps avg
скриншот   скриншот   скриншот   скриншот  

Общее
Полное имя : F:\ФИЛЬМЫ\Измени или умри.2019.WEB-DLRip.avi
Формат : AVI
Формат/Информация : Audio Video Interleave
Размер файла : 703 Мбайт
Продолжительность : 1 ч. 22 м.
Общий поток : 1189 Кбит/сек
Программа кодирования : VirtualDubMod 1.5.10.3 | www.virtualdub-fr.org || (build 2550/release)
Библиотека кодирования : VirtualDubMod build 2550/release

Видео
Идентификатор : 0
Формат : MPEG-4 Visual
Профиль формата : Advanced Simple@L5
Настройки формата : BVOP3 / GMC3 / QPel
Параметр BVOP формата : 3
Параметр QPel формата : Да
Параметр GMC формата : 3 точки перехода
Параметр матрицы формата : Default (MPEG)
Идентификатор кодека : DIVX
Идентификатор кодека/Информация : Project Mayo
Идентификатор кодека/Подсказка : DivX 4
Продолжительность : 1 ч. 22 м.
Битрейт : 1052 Кбит/сек
Ширина : 672 пикселя
Высота : 280 пикселей
Соотношение сторон : 2,40:1
Частота кадров : 23,976 (24000/1001) кадра/сек
Цветовое пространство : YUV
Субдискретизация насыщенности : 4:2:0
Битовая глубина : 8 бит
Тип развёртки : Прогрессивная
Метод сжатия : С потерями
Бит/(Пиксели*Кадры) : 0.233
Размер потока : 622 Мбайт (88%)
Библиотека кодирования : XviD 1.2.1 (UTC 2008-12-04)

Аудио
Идентификатор : 1
Формат : MPEG Audio
Версия формата : Version 1
Профиль формата : Layer 3
Настройки формата : Joint stereo
Идентификатор кодека : 55
Идентификатор кодека/Подсказка : MP3
Продолжительность : 1 ч. 22 м.
Вид битрейта : Постоянный
Битрейт : 128 Кбит/сек
Каналы : 2 канала
Частота : 48,0 КГц
Частота кадров : 41,667 кадра/сек (1152 SPF)
Метод сжатия : С потерями
Размер потока : 75,7 Мбайт (11%)
Выравнивание : Соединение по промежуткам
Продолжительность промежутка : 42 мс. (1,00 видеокадр)
Время предзагрузки промежутка : 504 мс.
Библиотека кодирования : LAME3.99r
Настройки программы : -m j -V 4 -q 2 -lowpass 17 -b 128




Скачать Измени или умри через торрент https://pic1.kartinco.top/images/12/kyxxl.jpg Скачать, смотреть онлайн Измени или умри бесплантно в хорошем качестве Описание: Тайное свидание в дорогой гостинице. Жена изменяет своему мужу. Муж изменяет своей жене. Казалось бы, ничего необычного. Но что, ... 10 10 2
Торрент: Зарегистрирован [2019-11-02 18:36] · скачан: 45 раз
Статус: √ проверено
Размер: 703 MB
Как cкачать? Как скачать Измени или умри через торрент | UTorrent

% Раздел Тема Автор DL S | L
Фильмы 2019-2020 [DVDrip, WEB-DLRip, HDrip] (DUB, MVO) [ 1.46 GB ] Измени или умри / An Affair to Die For | iTunes | DLRip bober100 Скачать
1 | 0
Фильмы (WEB-DL 720p, 1080p) [ 3.25 GB ] Измени или умри / An Affair to Die For | iTunes | 1080p bober100 Скачать
1 | 0

28-11-2019 20:33  


Отключить вcю реклaмy на сайте, в т.ч. и в плеере онлайн просмотра!

    Дорогой пользователь! Огромная просьба, поблагодарите релизера, оцените раздачу и оставьте свои комментарий, если Вы скачали Измени или умри через торрент бесплатно!!
    Комментировать посты могут только пользователи прошедшие не сложную регистрацию
    Показать сообщения:    


    Измени или умри через торрент
    Скачать бесплатно Измени или умри
    Измени или умри скачать торрент
    Измени или умри смотреть онлайн
    Cкачать фильм Измени или умри бесплатно
    Измени или умри скачать торрент в хорошем качестве
    Измени или умри смотреть онлайн бесплатно в хорошем качестве
    Вы не можете начинать темы
    Вы не можете отвечать на сообщения
    Вы не можете редактировать свои сообщения
    Вы не можете удалять свои сообщения
    Вы не можете голосовать в опросах
    Вы не можете прикреплять файлы к сообщениям
    Вы можете скачивать файлы
    Измени или умри / An Affair to Die For [2019 г., триллер, WEB-DLRip, Профессиональный многоголосый закадровый "iTunes"] смотреть онлайн, скачать торрент picoco.icu