Лицензия

MVO

1

1 сезон

Лицензия

Лицензия

13

MVO

1 сезон

Deluxe Edition

pack

Рекомендуем

30

Repack

ВАЖНО

ВАЖНО

Ghostwire

RePack

jed

RePack

fifa19

RePack

RDR2

RePack

NEED FOR SPEED™ PAYBACK

RePack

Кинопоиск HD

 Острые козырьки 6 сезон

6 сезон

FAR CRY 6

RePack

Лицензия

MVO

1

1 сезон

1 сезон

Лицензия

  

Белые горы (Мелис Убукеев) [1964, СССР, драма, DVDRip от AVP Studio]

Белые горы через торрент piratbit.org

Раздают: 1 [ 0 KB/s ]
Размер: 745 MB | Добавлен: 2 года 10 мес. назад | Торрент скачан:14 раз
Смотреть онлайн Белые горы | Скачать   

04-11-2019 08:45 Белые горы Скачать торрент  

Белые горы
Страна: СССР
Производство: Киргизфильм

Жанр: драма
Год выпуска: 1964
Продолжительность: 01:03:12

Перевод: Не требуется
Cубтитры: нет
Оригинальная аудиодорожка: русский

Режиссер: Мелис Убукеев

В ролях:
Шайирбек Кобегенов, А. Абаева, Бакен Кыдыкеева, Муратбек Рыскулов, Болот Бейшеналиев, Вячеслав Жариков, К. Рысмендиева, Советбек Джумадылов, Амангельды Айталиев, Рудольф Панков, Толеш Океев...
Об актёрах подробней

Описание:
Действие происходит в 1918 году, в первые месяцы ожесточенной борьбы с феодальной знатью за установление народной власти в Киргизии.
В центре трагическая судьба бедного юноши Мукаша, который решил спасти свою любимую Уулджан, проданную в жены богачу. Мукаш и Уулджан уходят из аула, чтобы начать новую, счастливую жизнь в городе, где прочно установилась советская Влacть. В стычке с преследователями, спасая Уулджан, Мукаш погибает от руки своего отца.

Источник: DVD5 R5
Качество видео: DVDRip
Формат видео: AVI

Видео: 688х512 (4:3), 25,000 fps, XviD ~ 1446 kbps avg, 0.164 bit/pixel
Аудио: 48 kHz, Dolby Digital AC3 2.0, 192 kbps

Раздача от:
Общее
Полное имя : Belye.gory.1964.DVDRip_[New-team]_by_AVP_Studio.avi
Формат : AVI
Формат/Информация : Audio Video Interleave
Размер файла : 745 Мбайт
Продолжительность : 1 ч. 3 м.
Общий поток : 1647 Кбит/сек
Программа кодирования : VirtualDubMod 1.5.10.3 | www.virtualdub-fr.org || (build 2550/release)
Библиотека кодирования : VirtualDubMod build 2550/release

Видео
Идентификатор : 0
Формат : MPEG-4 Visual
Профиль формата : Advanced Simple@L5
Настройки формата : BVOP1 / Custom Matrix
Параметр BVOP формата : 1
Параметр QPel формата : Нет
Параметр GMC формата : Без точки перехода
Параметр матрицы формата : Выборочная
Идентификатор кодека : XVID
Идентификатор кодека/Подсказка : XviD
Продолжительность : 1 ч. 3 м.
Битрейт : 1446 Кбит/сек
Ширина : 688 пикселей
Высота : 512 пикселей
Соотношение сторон : 4:3
Частота кадров : 25,000 кадров/сек
Цветовое пространство : YUV
Субдискретизация насыщенности : 4:2:0
Битовая глубина : 8 бит
Тип развёртки : Прогрессивная
Метод сжатия : С потерями
Бит/(Пиксели*Кадры) : 0.164
Размер потока : 653 Мбайт (88%)
Библиотека кодирования : XviD 73

Аудио
Идентификатор : 1
Формат : AC-3
Формат/Информация : Audio Coding 3
Коммерческое название : Dolby Digital
Идентификатор кодека : 2000
Продолжительность : 1 ч. 3 м.
Вид битрейта : Постоянный
Битрейт : 192 Кбит/сек
Каналы : 2 канала
ChannelLayout : L R
Частота : 48,0 КГц
Частота кадров : 31,250 кадров/сек (1536 SPF)
Битовая глубина : 16 бит
Метод сжатия : С потерями
Размер потока : 86,8 Мбайт (12%)
Выравнивание : Разделение по промежуткам
Продолжительность промежутка : 40 мс. (1,00 видеокадр)
Время предзагрузки промежутка : 500 мс



Скачать Белые горы через торрент http://d.radikal.ru/d23/1911/10/e335d23fe366.png Скачать, смотреть онлайн Белые горы бесплантно в хорошем качестве Описание:Действие происходит в 1918 году, в первые месяцы ожесточенной борьбы с феодальной знатью за установление народной власти в ... 5 10 1
Торрент: Зарегистрирован [2019-11-04 08:45] · скачан: 14 раз
Статус: √ проверено
Размер: 745 MB
Как cкачать? Как скачать Белые горы через торрент | UTorrent

% Раздел Тема Автор DL S | L
Кино СССР [ 744 MB ] Белые горы | | DVDRip-AVC от AVP Studio AVP Studio Скачать
1 | 0

28-11-2019 20:33  

Отключить вcю реклaмy на сайте

    Дорогой пользователь! Огромная просьба, поблагодарите релизера, оцените раздачу и оставьте свои комментарий, если Вы скачали Белые горы через торрент бесплатно!!
    Комментировать посты могут только пользователи прошедшие не сложную регистрацию
    Показать сообщения:    


    Белые горы через торрент
    Скачать бесплатно Белые горы
    Белые горы скачать торрент
    Белые горы смотреть онлайн
    Cкачать фильм Белые горы бесплатно
    Белые горы скачать торрент в хорошем качестве
    Белые горы смотреть онлайн бесплатно в хорошем качестве
    Вы не можете начинать темы
    Вы не можете отвечать на сообщения
    Вы не можете редактировать свои сообщения
    Вы не можете удалять свои сообщения
    Вы не можете голосовать в опросах
    Вы не можете прикреплять файлы к сообщениям
    Вы можете скачивать файлы