Достать ножи: Стеклянная луковица

MVO

Добыча

Дубляж

Уэнсдэй

1 сезон

Тор

Дубляж

13 клиническая

1 сезон

Жестокая ночь

MVO

Одни из нас

1 сезон

Deluxe

pack

Рекомендуем

30

Пиратка

ВАЖНО

ВАЖНО

Ghostwire

Пиратка

jed

RePack

nioh2

RePack

RDR2

RePack

NEED FOR SPEED™ PAYBACK

RePack

скачать торрент

Кинопоиск HD

Острые козырьки 6 сезон

6 сезон

FAR CRY 6

RePack

скачать торрент

Лицензия

скачать торрент

MVO

1

1 сезон

скачать торрент

1 сезон

скачать торрент

Лицензия

  

Форсаж: Хоббс и Шоу / Fast & Furious Presents: Hobbs & Shaw (Дэвид Литч) [2019, боевик, приключения, UHD BDRip 2160p] Дубляж [Лицензия]

Форсаж: Хоббс и Шоу через торрент piratbit.org

Размер: 15.37 GB | Добавлен: 3 года 2 мес. назад | Торрент скачан:237 раз
Смотреть онлайн | Скачать | Поддержите нас   

05-11-2019 03:27 Форсаж: Хоббс и Шоу Скачать торрент  

Форсаж: Хоббс и Шоу / Fast & Furious Presents: Hobbs & Shaw

Год выпуска: 2019
Страна: США
Жанр: боевик, приключения
Продолжительность: 02:16:41
Перевод: Дублированный | Лицензия
Субтитры: Русские (форсированные, полные), английские
Режиссер: Дэвид Литч
В ролях:

Дуэйн Джонсон (Hobbs), Джейсон Стэйтем (Shaw), Ванесса Кирби (Hattie), Идрис Эльба (Brixton), Эдди Марсан (Professor Andreiko), Хелен Миррен (Queenie), Райан Рейнольдс (Eteon Director / Locke, озвучка), Эйса Гонсалес (Madame M), Клифф Кёртис (Jonah), Элиана Суа (Sam), Лори Пелениз Туисано (Sefina), Джон Туи (Kal)
Описание:
Люк Хоббс - американский элитный спецагент, он любит удобную спортивную одежду, большие пикапы и здоровое питание. Декард Шоу - британский пижон, бывший сотрудник разведки, предпочитает дорогие костюмы, спортивные авто и пабы.
Рейтинг:

MPAA: PG-13 - Детям до 13 лет просмотр не желателен
Качество: UHD BDRip 2160p
Формат: MKV
Видео: HEVC HDR, 11.6 Мбит/с, 3840x1604, 23.976 кадр/с, 10 Бит
Аудио: 48 kHz, AC3, 5.1, 640 Kbps | Дублированный (Лицензия)
Аудио: 48 kHz, AC3, 2.1, 192 Kbps | Украинский, дублированный (студія LeDoyen) |
Аудио: 48 kHz, TrueHD, 7.1, 3141 Kbps | Оригинал | ENG
Аудио: 48 kHz, AC3, 5.1, 448 Kbps | Оригинал | ENG
Навигация по главам: Есть

Общее
Уникальный идентификатор : 207031036738987775111585784061682886371 (0x9BC0BA30CFEC48F291804A42356DA6E3)
Полное имя : D:\Передел\Fast.and.Furious.Presents.Hobbs.and.Shaw.2019.2160p.UHD.BDRip.HDR.x265.10bit.Master5.mkv
Формат : Matroska
Версия формата : Version 4
Размер файла : 15,4 Гбайт
Продолжительность : 2 ч. 16 м.
Режим общего битрейта : Переменный
Общий поток : 16,1 Мбит/сек
Название фильма : Fast.and.Furious.Presents.Hobbs.and.Shaw.2019.2160p.UHD.BDRip.HDR.x265.10bit.Master5
Дата кодирования : UTC 2019-11-25 13:17:30
Программа кодирования : mkvmerge v7.9.0 ('Birds') 64bit
Библиотека кодирования : libebml v1.3.1 + libmatroska v1.4.2
Обложка : Yes
Attachments : cover_land.jpg / small_cover.jpg / small_cover_land.jpg / cover.jpg / cover.jpg

Видео
Идентификатор : 1
Формат : HEVC
Формат/Информация : High Efficiency Video Coding
Коммерческое название : HDR10
Профиль формата : Main 10@L5.1@High
Идентификатор кодека : V_MPEGH/ISO/HEVC
Продолжительность : 2 ч. 16 м.
Битрейт : 11,6 Мбит/сек
Ширина : 3840 пикселей
Высота : 1604 пикселя
Соотношение сторон : 2,40:1
Режим частоты кадров : Постоянный
Частота кадров : 23,976 (24000/1001) кадра/сек
Цветовое пространство : YUV
Субдискретизация насыщенности : 4:2:0 (Type 2)
Битовая глубина : 10 бит
Бит/(Пиксели*Кадры) : 0.079
Размер потока : 11,1 Гбайт (72%)
Заголовок : Fast.and.Furious.Presents.Hobbs.and.Shaw.2019.2160p.UHD.BDRip.HDR.x265.10bit.Master5
Библиотека кодирования : x265 3.2+8-7fc1f6ef2b96:[Windows][GCC 9.2.1][64 bit] 10bit
Настройки программы : cpuid=1111039 / frame-threads=5 / numa-pools=32,0 / wpp / no-pmode / no-pme / no-psnr / no-ssim / log-level=2 / input-csp=1 / input-res=3840x1604 / interlace=0 / total-frames=196646 / level-idc=51 / high-tier=1 / uhd-bd=0 / ref=4 / no-allow-non-conformance / repeat-headers / annexb / aud / hrd / info / hash=0 / no-temporal-layers / no-open-gop / min-keyint=1 / keyint=24 / gop-lookahead=0 / bframes=4 / b-adapt=2 / b-pyramid / bframe-bias=0 / rc-lookahead=25 / lookahead-slices=4 / scenecut=40 / radl=0 / no-splice / no-intra-refresh / ctu=64 / min-cu-size=8 / rect / no-amp / max-tu-size=32 / tu-inter-depth=1 / tu-intra-depth=1 / limit-tu=0 / rdoq-level=2 / dynamic-rd=0.00 / no-ssim-rd / signhide / no-tskip / nr-intra=0 / nr-inter=0 / no-constrained-intra / no-strong-intra-smoothing / max-merge=3 / limit-refs=3 / limit-modes / me=3 / subme=3 / merange=57 / temporal-mvp / no-frame-dup / no-hme / weightp / no-weightb / no-analyze-src-pics / deblock=-3:-3 / no-sao / no-sao-non-deblock / rd=4 / selective-sao=0 / no-early-skip / rskip / no-fast-intra / no-tskip-fast / no-cu-lossless / no-b-intra / no-splitrd-skip / rdpenalty=0 / psy-rd=2.00 / psy-rdoq=1.00 / no-rd-refine / no-lossless / cbqpoffs=0 / crqpoffs=0 / rc=crf / crf=17.0 / qcomp=0.60 / qpstep=4 / stats-write=0 / stats-read=0 / vbv-maxrate=160000 / vbv-bufsize=160000 / vbv-init=0.9 / crf-max=0.0 / crf-min=0.0 / ipratio=1.40 / pbratio=1.30 / aq-mode=2 / aq-strength=1.00 / cutree / zone-count=0 / no-strict-cbr / qg-size=32 / no-rc-grain / qpmax=69 / qpmin=0 / no-const-vbv / sar=1 / overscan=0 / videoformat=5 / range=0 / colorprim=9 / transfer=16 / colormatrix=9 / chromaloc=1 / chromaloc-top=2 / chromaloc-bottom=2 / display-window=0 / master-display=G(13250,34500)B(7500,3000)R(34000,16000)WP(15635,16450)L(40000000,50) / cll=1000,419 / min-luma=0 / max-luma=1023 / log2-max-poc-lsb=8 / vui-timing-info / vui-hrd-info / slices=1 / no-opt-qp-pps / no-opt-ref-list-length-pps / no-multi-pass-opt-rps / scenecut-bias=0.05 / no-opt-cu-delta-qp / no-aq-motion / hdr / hdr-opt / no-dhdr10-opt / no-idr-recovery-sei / analysis-reuse-level=5 / scale-factor=0 / refine-intra=0 / refine-inter=0 / refine-mv=1 / refine-ctu-distortion=0 / no-limit-sao / ctu-info=0 / no-lowpass-dct / refine-analysis-type=0 / copy-pic=1 / max-ausize-factor=1.0 / no-dynamic-refine / no-single-sei / no-hevc-aq / no-svt / no-field / qp-adaptation-range=1.00
Default : Да
Forced : Нет
Цветовой диапазон : Limited
Основные цвета : BT.2020
Характеристики трансфера : PQ
Коэффициенты матрицы : BT.2020 non-constant
MasteringDisplay_ColorPrimaries : Display P3
MasteringDisplay_Luminance : min: 0.0050 cd/m2, max: 4000 cd/m2
MaxCLL : 1000 cd/m2
MaxFALL : 419 cd/m2

Аудио #1
Идентификатор : 2
Формат : AC-3
Формат/Информация : Audio Coding 3
Коммерческое название : Dolby Digital
Идентификатор кодека : A_AC3
Продолжительность : 2 ч. 16 м.
Вид битрейта : Постоянный
Битрейт : 640 Кбит/сек
Каналы : 6 каналов
Channel layout : L R C LFE Ls Rs
Частота : 48,0 КГц
Частота кадров : 31,250 кадров/сек (1536 SPF)
Битовая глубина : 16 бит
Метод сжатия : С потерями
Размер потока : 626 Мбайт (4%)
Заголовок : Дубляж License
Язык : Russian
ServiceKind/String : Complete Main
Default : Да
Forced : Да

Аудио #2
Идентификатор : 3
Формат : AC-3
Формат/Информация : Audio Coding 3
Коммерческое название : Dolby Digital
Идентификатор кодека : A_AC3
Продолжительность : 2 ч. 16 м.
Вид битрейта : Постоянный
Битрейт : 192 Кбит/сек
Каналы : 2 канала
Channel layout : L R
Частота : 48,0 КГц
Частота кадров : 31,250 кадров/сек (1536 SPF)
Битовая глубина : 16 бит
Метод сжатия : С потерями
Размер потока : 188 Мбайт (1%)
Заголовок : Ukr Дубляж, LeDoyen
Язык : Ukrainian
ServiceKind/String : Complete Main
Default : Нет
Forced : Нет

Аудио #3
Идентификатор : 4
Формат : MLP FBA 16-ch
Формат/Информация : Meridian Lossless Packing FBA with 16-channel presentation
Коммерческое название : Dolby TrueHD with Dolby Atmos
Идентификатор кодека : A_TRUEHD
Продолжительность : 2 ч. 16 м.
Вид битрейта : Переменный
Битрейт : 3141 Кбит/сек
Максимальный битрейт : 5394 Кбит/сек
Каналы : 8 каналов
Channel layout : L R C LFE Ls Rs Lb Rb
Частота : 48,0 КГц
Частота кадров : 1200,000 кадров/сек (40 SPF)
Метод сжатия : Без потерь
Размер потока : 3,00 Гбайт (20%)
Заголовок : Original
Язык : English
Default : Нет
Forced : Нет
Number of dynamic objects : 11
Bed channel count : 1 канал
Bed channel configuration : LFE

Аудио #4
Идентификатор : 5
Формат : AC-3
Формат/Информация : Audio Coding 3
Коммерческое название : Dolby Digital
Идентификатор кодека : A_AC3
Продолжительность : 2 ч. 16 м.
Вид битрейта : Постоянный
Битрейт : 448 Кбит/сек
Каналы : 6 каналов
Channel layout : L R C LFE Ls Rs
Частота : 48,0 КГц
Частота кадров : 31,250 кадров/сек (1536 SPF)
Битовая глубина : 16 бит
Метод сжатия : С потерями
Размер потока : 438 Мбайт (3%)
Заголовок : Original
Язык : English
ServiceKind/String : Complete Main
Default : Нет
Forced : Нет

Текст #1
Идентификатор : 6
Формат : UTF-8
Идентификатор кодека : S_TEXT/UTF8
Идентификатор кодека/Информация : UTF-8 Plain Text
Продолжительность : 1 ч. 57 м.
Битрейт : 0 бит/сек
ElementCount : 19
Размер потока : 778 байт (0%)
Заголовок : Forced License
Язык : Russian
Default : Да
Forced : Да

Текст #2
Идентификатор : 7
Формат : UTF-8
Идентификатор кодека : S_TEXT/UTF8
Идентификатор кодека/Информация : UTF-8 Plain Text
Продолжительность : 2 ч. 4 м.
Битрейт : 1 бит/сек
ElementCount : 48
Размер потока : 1,42 Кбайт (0%)
Заголовок : Forced v.2
Язык : Russian
Default : Нет
Forced : Нет

Текст #3
Идентификатор : 8
Формат : UTF-8
Идентификатор кодека : S_TEXT/UTF8
Идентификатор кодека/Информация : UTF-8 Plain Text
Продолжительность : 2 ч. 4 м.
Битрейт : 86 бит/сек
ElementCount : 1767
Размер потока : 79,4 Кбайт (0%)
Заголовок : Full License
Язык : Russian
Default : Нет
Forced : Нет

Текст #4
Идентификатор : 9
Формат : UTF-8
Идентификатор кодека : S_TEXT/UTF8
Идентификатор кодека/Информация : UTF-8 Plain Text
Продолжительность : 2 ч. 1 м.
Битрейт : 61 бит/сек
ElementCount : 1947
Размер потока : 54,9 Кбайт (0%)
Заголовок : Full
Язык : English
Default : Нет
Forced : Нет

Меню
00:00:00.000 : :Chapter 01
00:04:58.131 : :Chapter 02
00:13:43.489 : :Chapter 03
00:19:21.452 : :Chapter 04
00:26:45.979 : :Chapter 05
00:35:41.514 : :Chapter 06
00:40:13.244 : :Chapter 07
00:46:22.029 : :Chapter 08
00:51:34.216 : :Chapter 09
00:57:51.802 : :Chapter 10
01:01:53.251 : :Chapter 11
01:08:45.162 : :Chapter 12
01:14:22.833 : :Chapter 13
01:19:48.075 : :Chapter 14
01:24:59.261 : :Chapter 15
01:32:58.198 : :Chapter 16
01:38:48.923 : :Chapter 17
01:46:32.970 : :Chapter 18
01:53:29.594 : :Chapter 19
02:01:14.809 : :Chapter 20



Скачать Форсаж: Хоббс и Шоу через торрент https://c.radikal.ru/c07/1911/59/0b3988bdbefc.png Скачать, смотреть онлайн Форсаж: Хоббс и Шоу бесплантно в хорошем качестве Описание: Люк Хоббс - американский элитный спецагент, он любит удобную спортивную одежду, большие пикапы и здоровое питание. Декард Шоу - ... 10 10 16
Info! Золотая раздача, скачанное не засчитывается.
Торрент: Зарегистрирован [2019-11-25 15:43] · скачан: 237 раз
Статус: √ проверено
Размер: 15.37 GB
Как cкачать? Как скачать Форсаж: Хоббс и Шоу через торрент | UTorrent

% Раздел Тема Автор DL S | L
Фильмы [HD 720p, 1080p] (Хороший звук DUB, MVO) [ 5.45 GB ] Форсаж: Хоббс и Шоу / Fast & Furious Presents: Hobbs & Shaw | Лицензия | 720p, Дубляж Лицензия, 2 x AVO morfyi Скачать
2 | 0
Фильмы с авторской озвучкой [ 2.53 GB ] Форсаж: Хоббс и Шоу / Fast & Furious Presents: Hobbs & Shaw | AVO | BDRip-AVC killermax2013 Скачать
2 | 0
T Фильмы (BDRip, HDrip-AVC) (48-60 fps) [ 3.18 GB ] Форсаж: Хоббс и Шоу / Fast & Furious Presents: Hobbs & Shaw | Дубляж | BDRip-AVC, 60 FPS TimeCop Скачать
2 | 0
3D Фильмы [ 8.09 GB ] Форсаж: Хоббс и Шоу в 3D / Fast & Furious Presents: Hobbs & Shaw in 3D | Лицензия | 1080p, Дубляж Лицензия slaventi-69 Скачать
1 | 0
Фильмы (HD 720p, 1080p) (48-60 fps) [ 4.15 GB ] Форсаж: Хоббс и Шоу / Fast & Furious Presents: Hobbs & Shaw | Дубляж | 720p / 60 FPS slaventi-69 Скачать
1 | 0
Фильмы (Blu-ray, BD-Remux, HDDVD) [ 43.22 GB ] Форсаж: Хоббс и Шоу / Fast & Furious Presents: Hobbs & Shaw | Лицензия | 1080p sheker187 Скачать
1 | 0
Ultra HD (UHD: 2K, 4K, 8K) [ 84.38 GB ] Форсаж: Хоббс и Шоу / Fast & Furious Presents: Hobbs & Shaw | Лицензия | 2160p bober100 Скачать
1 | 0

28-11-2019 20:33  


Отключить вcю реклaмy на сайте, в т.ч. и в плеере онлайн просмотра!

    Дорогой пользователь! Огромная просьба, поблагодарите релизера, оцените раздачу и оставьте свои комментарий, если Вы скачали Форсаж: Хоббс и Шоу через торрент бесплатно!!
    Комментировать посты могут только пользователи прошедшие не сложную регистрацию
    Показать сообщения:    


    Форсаж: Хоббс и Шоу через торрент
    Скачать бесплатно Форсаж: Хоббс и Шоу
    Форсаж: Хоббс и Шоу скачать торрент
    Форсаж: Хоббс и Шоу смотреть онлайн
    Cкачать фильм Форсаж: Хоббс и Шоу бесплатно
    Форсаж: Хоббс и Шоу скачать торрент в хорошем качестве
    Форсаж: Хоббс и Шоу смотреть онлайн бесплатно в хорошем качестве
    Вы не можете начинать темы
    Вы не можете отвечать на сообщения
    Вы не можете редактировать свои сообщения
    Вы не можете удалять свои сообщения
    Вы не можете голосовать в опросах
    Вы не можете прикреплять файлы к сообщениям
    Вы можете скачивать файлы
    Форсаж: Хоббс и Шоу / Fast & Furious Presents: Hobbs & Shaw [2019, боевик, приключения, UHD BDRip 2160p] Дубляж [Лицензия] смотреть онлайн, скачать торрент picoco.icu