Ссылка на приватное зеркало нашего сайта всего за 1$. Внимание количество ограничено!!!

2 сезон

iTunes

1 сезон

1

iTunes

iTunes

iTunes

1 сезон

RePack

30

ИГРА 18+

pack

ВАЖНО

!!Акция!!

Alien_RageХит недели

RePack

MK11
pack

Забери бонус

RePack

jed

!!Акция!!

Alien_Rage

RePack

fifa19

RePack

Assassins Creed: Odyssey

RePack

NEED FOR SPEED™ PAYBACK

4 сезон

9 сезон

Бесстыжие 9 сезон

Все сериалы

все сериалы на PB.wtf

RePack

FAR CRY 5
  

Кто он? (Тень) / Cien (Ежи Кавалерович) [1956, детектив, BDRip 720p by msltel] DUB piratbit.org

Кто он? через торрент piratbit.org

Размер: 3.4 GB | Добавлен: 11 мес. назад | Торрент скачан:2 раза
Скачать  

05-11-2019 05:52 Кто он? Скачать торрент  

Название: Кто он? (Тень)
Оригинальное название: Cien
Год выпуска: 1956
Страна: Польша
Жанр: детектив
Продолжительность: 01:34:11
Перевод: дублированный

Режиссер: Ежи Кавалерович
В ролях: Зигмунт Кенстович, Адольф Хроницкий, Эмиль Каревич, Игнацы Маховский, Тадеуш Юраш, Болеслав Плотницкий, Богдан Эймонт, Мариан Лонч, Здзислав Шиманьский, Халина Пшибыльская, Антони Юраш, Веслав Голас, Барбара Поломская, Станислав Микульский, Роман Клосовский, Витольд Пыркош, Зыгмунт Зинтель, Януш Страхоцкий, Збигнев Сковроньский, Анна Ходаковская (II), Мария Хвалибуг, Владислав Гломбик, Тадеуш Калиновский, Веслав Ковальчик, Тадеуш Косударский, Фердинанд Матысик, Илона Ставиньская, Ярема Стемповский, Виктор Гротович, Станислав Ясюкевич, Хенрик Хунко

О фильме: Влюблённая парочка случайно становится свидетелем того, как мужчина выпрыгивает из поезда на полном ходу. В его карманах нет никаких документов, а его лицо оказывается столь изуродованным, что опознать личность погибшего решительно невозможно. Кто он? Представитель полиции, занимающийся этим делом, выражает уверенность, что докопается до истины, ведь каждый человек отбрасывает в окружающий мир тень, по которой можно определить его присутствие. Доктор Кнышин, однако, не соглашается с офицером, ведь всегда есть вероятность, что тайное так и останется тайным. В качестве примера врач рассказывает историю, которая случилась с ним в 1943 году в оккупированной Варшаве и которая до сих пор не даёт ему покоя... Сюжет основан на рассказах Александра Сцибор-Рыльского.



Качество: BDRip 720p
Формат: MKV
Видео: MPEG-4 AVC, 4785 Kбит/с, 982x720, 23.976 Кадр/с
Аудио 1: русский, AC3, 192 kbps, 2 ch, 48 kHz [дублированный, Союзмультфильм]
Аудио 2: польский, AC3, 192 kbps, 2 ch, 48 kHz [оригинал]
Главы/чаптеры
Общее
Уникальный идентификатор : 176567146816373418197064791493430177993 (0x84D598745154226495F78AF8049370C9)
Полное имя : D:\Video\Кто он.1956.BDRip 720p by msltel.mkv
Формат : Matroska
Версия формата : Version 4
Размер файла : 3,40 Гбайт
Продолжительность : 1 ч. 34 м.
Общий поток : 5171 Кбит/сек
Название фильма : Rip by msltel
Дата кодирования : UTC 2019-11-05 02:11:44
Программа кодирования : mkvmerge v8.2.0 ('World of Adventure') 64bit
Библиотека кодирования : libebml v1.3.1 + libmatroska v1.4.2

Видео
Идентификатор : 1
Формат : AVC
Формат/Информация : Advanced Video Codec
Профиль формата : High@L4.1
Настройки формата : CABAC / 9 Ref Frames
Параметр CABAC формата : Да
Параметр RefFrames формата : 9 кадров
Идентификатор кодека : V_MPEG4/ISO/AVC
Продолжительность : 1 ч. 34 м.
Битрейт : 4785 Кбит/сек
Ширина : 982 пикселя
Высота : 720 пикселей
Соотношение сторон : 4:3
Режим частоты кадров : Постоянный
Частота кадров : 23,976 (24000/1001) кадра/сек
Цветовое пространство : YUV
Субдискретизация насыщенности : 4:2:0
Битовая глубина : 8 бит
Тип развёртки : Прогрессивная
Бит/(Пиксели*Кадры) : 0.282
Размер потока : 3,15 Гбайт (93%)
Библиотека кодирования : x264 core 157 r2935 545de2f
Настройки программы : cabac=1 / ref=9 / deblock=1:-2:-2 / analyse=0x3:0x113 / me=umh / subme=11 / psy=1 / psy_rd=1.00:0.15 / mixed_ref=1 / me_range=32 / chroma_me=1 / trellis=2 / 8x8dct=1 / cqm=0 / deadzone=21,11 / fast_pskip=0 / chroma_qp_offset=-3 / threads=6 / lookahead_threads=1 / sliced_threads=0 / nr=0 / decimate=1 / interlaced=0 / bluray_compat=0 / constrained_intra=0 / bframes=9 / b_pyramid=2 / b_adapt=2 / b_bias=0 / direct=1 / weightb=1 / open_gop=0 / weightp=2 / keyint=230 / keyint_min=23 / scenecut=40 / intra_refresh=0 / rc_lookahead=40 / rc=crf / mbtree=1 / crf=18.2 / qcomp=0.60 / qpmin=0 / qpmax=69 / qpstep=4 / vbv_maxrate=50000 / vbv_bufsize=62500 / crf_max=0.0 / nal_hrd=none / filler=0 / ip_ratio=1.40 / aq=1:1.00
Язык : Polish
Default : Да
Forced : Нет

Аудио #1
Идентификатор : 2
Формат : AC-3
Формат/Информация : Audio Coding 3
Коммерческое название : Dolby Digital
Идентификатор кодека : A_AC3
Продолжительность : 1 ч. 34 м.
Вид битрейта : Постоянный
Битрейт : 192 Кбит/сек
Каналы : 2 канала
ChannelLayout : L R
Частота : 48,0 КГц
Частота кадров : 31,250 кадров/сек (1536 SPF)
Метод сжатия : С потерями
Размер потока : 129 Мбайт (4%)
Заголовок : DUB Союзмультфильм
Язык : Russian
ServiceKind/String : Complete Main
Default : Да
Forced : Нет

Аудио #2
Идентификатор : 3
Формат : AC-3
Формат/Информация : Audio Coding 3
Коммерческое название : Dolby Digital
Идентификатор кодека : A_AC3
Продолжительность : 1 ч. 34 м.
Вид битрейта : Постоянный
Битрейт : 192 Кбит/сек
Каналы : 2 канала
ChannelLayout : L R
Частота : 48,0 КГц
Частота кадров : 31,250 кадров/сек (1536 SPF)
Метод сжатия : С потерями
Размер потока : 129 Мбайт (4%)
Заголовок : original
Язык : Polish
ServiceKind/String : Complete Main
Default : Нет
Forced : Нет

Меню
00:00:00.000 : :Глава 01
00:02:43.496 : :Глава 02
00:08:15.495 : :Глава 03
00:17:10.988 : :Глава 04
00:28:00.303 : :Глава 05
00:34:58.137 : :Глава 06
00:43:17.595 : :Глава 07
00:51:27.584 : :Глава 08
01:00:15.945 : :Глава 09
01:09:08.060 : :Глава 10
01:18:03.512 : :Глава 11
01:27:32.205 : :Глава 12
piratbit.org



Скачать Кто он? через торрент https://c.radikal.ru/c36/1911/cf/200e03eedb46.jpg Скачать фильм Кто он? через торрент бесплантно в хорошем качестве О фильме: Влюблённая парочка случайно становится свидетелем того, как мужчина выпрыгивает из поезда на полном ходу. В его карманах нет ... 10 10 1
Торрент: Зарегистрирован [2019-11-05 05:52] · скачан: 2 раз
Статус: √ проверено
Размер: 3.4 GB
Как cкачать? Как скачать Кто он? через торрент | qTorrent

% Раздел Тема Автор DL S | L
Фильмы [HD 720p, 1080p] (Хороший звук DUB, MVO) [ 8.94 GB ] Доктор Голливуд / Doc Hollywood [1991 BDRip-HEVC 1080p] DUB + 3хMVO + DVO + 2xAVO RealOldGamer Скачать
2 | 0
Фильмы [HD 720p, 1080p] (Хороший звук DUB, MVO) [ 7.5 GB ] Коллекторы 2 / The Debt Collector 2 [2020 BDRip 1080p] bober100 Скачать
6 | 0
Фильмы (Blu-ray, BD-Remux, HDDVD) [ 16.46 GB ] Коллекторы 2 / The Debt Collector 2 [2020 BD Remux 1080p] bober100 Скачать
3 | 0
Фильмы (WEB-DL 720p, 1080p) [ 6.4 GB ] Коллекторы 2 / The Debt Collector 2 [2020 WEB-DL 1080p ] bober100 Скачать
8 | 0
Фильмы 2019-2020 [DVDrip, WEB-DLRip, HDrip] (DUB, MVO) [ 746 MB ] Коллекторы 2 / The Debt Collector 2 [2020 WEB-DLRip] bober100 Скачать
2 | 0
Фильмы (WEB-DL 720p, 1080p) [ 2.55 GB ] Коллекторы 2 / The Debt Collector 2 [2020 WEB-DLRip 720p] - ExKinoRay Enigma2010 Скачать
50 | 1
Фильмы (WEB-DL 720p, 1080p) [ 3.35 GB ] Коллекторы 2 / The Debt Collector 2 [2020 WEB-DL 1080p] bober100 Скачать
5 | 0

28-11-2019 20:33  

Отключить всю рекламу на сайте

    Дорогой пользователь! Огромная просьба, поблагодарите релизера, оцените раздачу и оставьте свои комментарий, если Вы скачали Кто он? через торрент бесплатно! Внесите свою лепту в развитие PiratBit!
    Комментировать посты могут только пользователи прошедшие не сложную регистрацию
    Показать сообщения:    

    Кто он? через торрент
    Скачать бесплатно Кто он?
    Кто он? скачать торрент
    Кто он? смотреть онлайн
    Cкачать фильм Кто он? бесплатно
    Кто он? скачать торрент в хорошем качестве
    Кто он? смотреть онлайн бесплатно в хорошем качестве


    Вы не можете начинать темы
    Вы не можете отвечать на сообщения
    Вы не можете редактировать свои сообщения
    Вы не можете удалять свои сообщения
    Вы не можете голосовать в опросах
    Вы не можете прикреплять файлы к сообщениям
    Вы можете скачивать файлы