Достать ножи: Стеклянная луковица

MVO

Добыча

Дубляж

Уэнсдэй

1 сезон

Тор

Дубляж

13 клиническая

1 сезон

Жестокая ночь

MVO

Одни из нас

1 сезон

Deluxe

pack

Рекомендуем

30

Пиратка

ВАЖНО

ВАЖНО

Ghostwire

Пиратка

jed

RePack

nioh2

RePack

RDR2

RePack

NEED FOR SPEED™ PAYBACK

RePack

скачать торрент

Кинопоиск HD

Острые козырьки 6 сезон

6 сезон

FAR CRY 6

RePack

скачать торрент

Лицензия

скачать торрент

MVO

1

1 сезон

скачать торрент

1 сезон

скачать торрент

Лицензия

  

Бэтмен: Начало / Batman Begins (Кристофер Нолан) [2005, Фэнтези, боевик, драма, приключения, UHD BDRemux 2160p] Дубляж+MVO+2xDVO+4xAVO

Бэтмен: Начало через торрент piratbit.org

Раздают: 1 [ 0 KB/s ]
Размер: 71.4 GB | Добавлен: 3 года 3 мес. назад | Торрент скачан:87 раз
Смотреть онлайн | Скачать | Поддержите нас   

05-11-2019 20:35 Бэтмен: Начало Скачать торрент  

Бэтмен: Начало / Batman Begins
Год выпуска: 2005
Страна: США, Великобритания, DC Comics, Legendary Pictures, Patalex Productions, Syncopy, Warner Bros. Pictures
Жанр: Фэнтези, боевик, драма, приключения
Продолжительность: 02:20:03
Перевод: Дублированный, профессиональный многоголосый, профессиональный двухголосый, авторский
Субтитры: русские (5 видов), английские (full, SDH)

Режиссер: Кристофер Нолан

rating

В ролях:

Кристиан Бэйл, Кэти Холмс, Майкл Кейн, Киллиан Мёрфи, Том Уилкинсон, Лиам Нисон, Кен Ватанабе, Гари Олдман, Морган Фриман, Рутгер Хауэр, Раде Шербеджия, Марк Бун Джуниор
Описание: История о происхождении легенды Брюса Уэйна, юного наследника огромного состояния, потерявшего своих родителей. Покинув родной Готэм, он отправляется в путешествие по миру. Многочисленные преграды и лишения закаляют его характер, а мудрый наставник помогает вновь обрести смысл жизни. Легендарный герой, защитник слабых и борец с несправедливостью преображается у тебя на глазах. Вернувшись в Готэм, Бэтмен становится единственной преградой на пути у сил зла, готовых ввергнуть город во мрак беззакония…

Качество: UHD BDRemux 2160p
Формат: MKV

Видео: MPEG-H HEVC Video / 52616 kbps / 3840x2160 / 23.976 fps / 16:9 / Main 10 @ Level 5.1 @ High / 4:2:0 / 10 bits / HDR10 / BT.2020 /
Аудио 1: Russian AC3 / 5.1 / 48 kHz / 640 kbps / 16-bit |Дубляж, UHD Blu-Ray|
Аудио 2: Russian DTS-HD Master Audio / 5.1 / 48 kHz / 2099 kbps / 16-bit (DTS Core: 5.1 / 48 kHz / 1509 kbps / 16-bit) |MVO, Киномания|
Аудио 3: Russian DTS-HD Master Audio / 5.1 / 48 kHz / 2093 kbps / 16-bit (DTS Core: 5.1 / 48 kHz / 1509 kbps / 16-bit) |DVO, Tycoon Studio|
Аудио 4: Russian DTS-HD Master Audio / 5.1 / 48 kHz / 2097 kbps / 16-bit (DTS Core: 5.1 / 48 kHz / 1509 kbps / 16-bit) |DVO, Супербит|
Аудио 5: Russian DTS-HD Master Audio / 5.1 / 48 kHz / 2093 kbps / 16-bit (DTS Core: 5.1 / 48 kHz / 1509 kbps / 16-bit) |А. Гаврилов|
Аудио 6: Russian DTS-HD Master Audio / 5.1 / 48 kHz / 2094 kbps / 16-bit (DTS Core: 5.1 / 48 kHz / 1509 kbps / 16-bit) |В. Королев|
Аудио 7: Russian AC3 / 5.1 / 48 kHz / 448 kbps / 16-bit |Ю. Живов|
Аудио 8: Russian DTS-HD Master Audio / 5.1 / 48 kHz / 4403 kbps / 24-bit (DTS Core: 5.1 / 48 kHz / 1509 kbps / 24-bit) |Д. Есарев|
Аудио 9: English DTS-HD Master Audio / 5.1 / 48 kHz / 4382 kbps / 24-bit (DTS Core: 5.1 / 48 kHz / 1509 kbps / 24-bit) |original|
скриншот  скриншот  скриншот  

скриншот  скриншот  скриншот  

Общее
Уникальный идентификатор : 222244078593546259498010688930868140692 (0xA732A7104F1CD1F9F6DD84E0CDD49A94)
Полное имя : H:\UHD\Бэтмен Начало.2005.UHD.Blu-Ray.Remux.2160p.mkv
Формат : Matroska
Версия формата : Version 4
Размер файла : 71,4 Гбайт
Продолжительность : 2 ч. 20 м.
Режим общего битрейта : Переменный
Общий поток : 73,0 Мбит/сек
Дата кодирования : UTC 2019-11-04 20:14:50
Программа кодирования : mkvmerge v38.0.0 ('The Silent Type') 64-bit
Библиотека кодирования : libebml v1.3.9 + libmatroska v1.5.2
Attachments : poster.jpg

Видео
Идентификатор : 1
Формат : HEVC
Формат/Информация : High Efficiency Video Coding
Профиль формата : Main 10@L5.1@High
HDR_Format/String : SMPTE ST 2086, HDR10 compatible
Идентификатор кодека : V_MPEGH/ISO/HEVC
Продолжительность : 2 ч. 20 м.
Битрейт : 52,6 Мбит/сек
Ширина : 3840 пикселей
Высота : 2160 пикселей
Соотношение сторон : 16:9
Режим частоты кадров : Постоянный
Частота кадров : 23,976 (24000/1001) кадра/сек
Цветовое пространство : YUV
Субдискретизация насыщенности : 4:2:0 (Type 2)
Битовая глубина : 10 бит
Бит/(Пиксели*Кадры) : 0.265
Размер потока : 51,5 Гбайт (72%)
Default : Да
Forced : Нет
Цветовой диапазон : Limited
Основные цвета : BT.2020
Характеристики трансфера : PQ
Коэффициенты матрицы : BT.2020 non-constant
MasteringDisplay_ColorPrimaries : Display P3
MasteringDisplay_Luminance : min: 0.0050 cd/m2, max: 4000 cd/m2
MaxCLL : 500 cd/m2
MaxFALL : 200 cd/m2

Аудио #1
Идентификатор : 2
Формат : AC-3
Формат/Информация : Audio Coding 3
Коммерческое название : Dolby Digital
Идентификатор кодека : A_AC3
Продолжительность : 2 ч. 20 м.
Вид битрейта : Постоянный
Битрейт : 640 Кбит/сек
Каналы : 6 каналов
ChannelLayout : L R C LFE Ls Rs
Частота : 48,0 КГц
Частота кадров : 31,250 кадров/сек (1536 SPF)
Метод сжатия : С потерями
Размер потока : 641 Мбайт (1%)
Заголовок : Дубляж, UHD Blu-Ray
Язык : Russian
ServiceKind/String : Complete Main
Default : Да
Forced : Нет

Аудио #2
Идентификатор : 3
Формат : DTS XLL
Формат/Информация : Digital Theater Systems
Коммерческое название : DTS-HD Master Audio
Идентификатор кодека : A_DTS
Продолжительность : 2 ч. 20 м.
Вид битрейта : Переменный
Битрейт : 2099 Кбит/сек
Каналы : 6 каналов
ChannelLayout : C L R Ls Rs LFE
Частота : 48,0 КГц
Частота кадров : 93,750 кадра/сек (512 SPF)
Битовая глубина : 16 бит
Метод сжатия : Без потерь
Размер потока : 2,05 Гбайт (3%)
Заголовок : MVO, Киномания
Язык : Russian
Default : Нет
Forced : Нет

Аудио #3
Идентификатор : 4
Формат : DTS XLL
Формат/Информация : Digital Theater Systems
Коммерческое название : DTS-HD Master Audio
Идентификатор кодека : A_DTS
Продолжительность : 2 ч. 20 м.
Вид битрейта : Переменный
Битрейт : 2093 Кбит/сек
Каналы : 6 каналов
ChannelLayout : C L R Ls Rs LFE
Частота : 48,0 КГц
Частота кадров : 93,750 кадра/сек (512 SPF)
Битовая глубина : 16 бит
Метод сжатия : Без потерь
Размер потока : 2,05 Гбайт (3%)
Заголовок : DVO, Tycoon Studio
Язык : Russian
Default : Нет
Forced : Нет

Аудио #4
Идентификатор : 5
Формат : DTS XLL
Формат/Информация : Digital Theater Systems
Коммерческое название : DTS-HD Master Audio
Идентификатор кодека : A_DTS
Продолжительность : 2 ч. 20 м.
Вид битрейта : Переменный
Битрейт : 2097 Кбит/сек
Каналы : 6 каналов
ChannelLayout : C L R Ls Rs LFE
Частота : 48,0 КГц
Частота кадров : 93,750 кадра/сек (512 SPF)
Битовая глубина : 16 бит
Метод сжатия : Без потерь
Размер потока : 2,05 Гбайт (3%)
Заголовок : DVO, Супербит
Язык : Russian
Default : Нет
Forced : Нет

Аудио #5
Идентификатор : 6
Формат : DTS XLL
Формат/Информация : Digital Theater Systems
Коммерческое название : DTS-HD Master Audio
Идентификатор кодека : A_DTS
Продолжительность : 2 ч. 20 м.
Вид битрейта : Переменный
Битрейт : 2093 Кбит/сек
Каналы : 6 каналов
ChannelLayout : C L R Ls Rs LFE
Частота : 48,0 КГц
Частота кадров : 93,750 кадра/сек (512 SPF)
Битовая глубина : 16 бит
Метод сжатия : Без потерь
Размер потока : 2,05 Гбайт (3%)
Заголовок : А. Гаврилов
Язык : Russian
Default : Нет
Forced : Нет

Аудио #6
Идентификатор : 7
Формат : DTS XLL
Формат/Информация : Digital Theater Systems
Коммерческое название : DTS-HD Master Audio
Идентификатор кодека : A_DTS
Продолжительность : 2 ч. 20 м.
Вид битрейта : Переменный
Битрейт : 2094 Кбит/сек
Каналы : 6 каналов
ChannelLayout : C L R Ls Rs LFE
Частота : 48,0 КГц
Частота кадров : 93,750 кадра/сек (512 SPF)
Битовая глубина : 16 бит
Метод сжатия : Без потерь
Размер потока : 2,05 Гбайт (3%)
Заголовок : В. Королев
Язык : Russian
Default : Нет
Forced : Нет

Аудио #7
Идентификатор : 8
Формат : AC-3
Формат/Информация : Audio Coding 3
Коммерческое название : Dolby Digital
Идентификатор кодека : A_AC3
Продолжительность : 2 ч. 20 м.
Вид битрейта : Постоянный
Битрейт : 448 Кбит/сек
Каналы : 6 каналов
ChannelLayout : L R C LFE Ls Rs
Частота : 48,0 КГц
Частота кадров : 31,250 кадров/сек (1536 SPF)
Метод сжатия : С потерями
Размер потока : 449 Мбайт (1%)
Заголовок : Ю. Живов
Язык : Russian
ServiceKind/String : Complete Main
Default : Нет
Forced : Нет

Аудио #8
Идентификатор : 9
Формат : DTS XLL
Формат/Информация : Digital Theater Systems
Коммерческое название : DTS-HD Master Audio
Идентификатор кодека : A_DTS
Продолжительность : 2 ч. 20 м.
Вид битрейта : Переменный
Битрейт : 4403 Кбит/сек
Каналы : 6 каналов
ChannelLayout : C L R Ls Rs LFE
Частота : 48,0 КГц
Частота кадров : 93,750 кадра/сек (512 SPF)
Битовая глубина : 24 бит
Метод сжатия : Без потерь
Размер потока : 4,31 Гбайт (6%)
Заголовок : Д. Есарев
Язык : Russian
Default : Нет
Forced : Нет

Аудио #9
Идентификатор : 10
Формат : DTS XLL
Формат/Информация : Digital Theater Systems
Коммерческое название : DTS-HD Master Audio
Идентификатор кодека : A_DTS
Продолжительность : 2 ч. 20 м.
Вид битрейта : Переменный
Битрейт : 4382 Кбит/сек
Каналы : 6 каналов
ChannelLayout : C L R Ls Rs LFE
Частота : 48,0 КГц
Частота кадров : 93,750 кадра/сек (512 SPF)
Битовая глубина : 24 бит
Метод сжатия : Без потерь
Размер потока : 4,29 Гбайт (6%)
Язык : English
Default : Нет
Forced : Нет

Текст #1
Идентификатор : 11
Формат : UTF-8
Идентификатор кодека : S_TEXT/UTF8
Идентификатор кодека/Информация : UTF-8 Plain Text
Продолжительность : 2 ч. 19 м.
Битрейт : 78 бит/сек
ElementCount : 1401
Размер потока : 80,2 Кбайт (0%)
Заголовок : Blu-Ray
Язык : Russian
Default : Нет
Forced : Нет

Текст #2
Идентификатор : 12
Формат : UTF-8
Идентификатор кодека : S_TEXT/UTF8
Идентификатор кодека/Информация : UTF-8 Plain Text
Продолжительность : 2 ч. 9 м.
Битрейт : 86 бит/сек
ElementCount : 1380
Размер потока : 82,6 Кбайт (0%)
Заголовок : R5
Язык : Russian
Default : Нет
Forced : Нет

Текст #3
Идентификатор : 13
Формат : UTF-8
Идентификатор кодека : S_TEXT/UTF8
Идентификатор кодека/Информация : UTF-8 Plain Text
Продолжительность : 2 ч. 9 м.
Битрейт : 83 бит/сек
ElementCount : 1400
Размер потока : 79,9 Кбайт (0%)
Заголовок : v3
Язык : Russian
Default : Нет
Forced : Нет

Текст #4
Идентификатор : 14
Формат : UTF-8
Идентификатор кодека : S_TEXT/UTF8
Идентификатор кодека/Информация : UTF-8 Plain Text
Продолжительность : 2 ч. 11 м.
Битрейт : 87 бит/сек
ElementCount : 1452
Размер потока : 84,4 Кбайт (0%)
Заголовок : Е. Воронин - full
Язык : Russian
Default : Нет
Forced : Нет

Текст #5
Идентификатор : 15
Формат : UTF-8
Идентификатор кодека : S_TEXT/UTF8
Идентификатор кодека/Информация : UTF-8 Plain Text
Продолжительность : 2 ч. 11 м.
Битрейт : 92 бит/сек
ElementCount : 1525
Размер потока : 89,1 Кбайт (0%)
Заголовок : Е. Воронин - SDH
Язык : Russian
Default : Нет
Forced : Нет

Текст #6
Идентификатор : 16
Формат : UTF-8
Идентификатор кодека : S_TEXT/UTF8
Идентификатор кодека/Информация : UTF-8 Plain Text
Продолжительность : 2 ч. 9 м.
Битрейт : 51 бит/сек
ElementCount : 1377
Размер потока : 49,3 Кбайт (0%)
Заголовок : full
Язык : English
Default : Нет
Forced : Нет

Текст #7
Идентификатор : 17
Формат : UTF-8
Идентификатор кодека : S_TEXT/UTF8
Идентификатор кодека/Информация : UTF-8 Plain Text
Продолжительность : 2 ч. 19 м.
Битрейт : 51 бит/сек
ElementCount : 1473
Размер потока : 52,7 Кбайт (0%)
Заголовок : SDH
Язык : English
Default : Нет
Forced : Нет

Меню
00:00:00.000 : :You're Practice
00:03:39.385 : :More Than Just a Man
00:07:31.325 : :What Do You Fear ?
00:11:34.110 : :Tragedy
00:16:15.683 : :The Will to Act
00:19:44.433 : :This House
00:24:19.458 : :Not One of Your Good People
00:28:24.869 : :Carmine Falcone
00:31:25.383 : :Embrace Your Fear
00:35:53.901 : :Gotham Must Be Destroyed
00:38:24.677 : :Monastery Mayhem
00:41:14.680 : :Incorruptible Symbol
00:43:08.210 : :Nest of Bats
00:46:57.940 : :Welcome Home
00:49:43.939 : :Applied Sciences
00:53:26.161 : :Gordon's Visitor
00:55:55.143 : :Does It Come in Black ?
00:58:02.353 : :Secrets of Scary People
01:03:31.849 : :Rattle the Cages
01:05:53.074 : :Missing Weapon
01:08:38.948 : :More Inside
01:11:25.864 : :Crane's Mask
01:13:19.520 : :Do I Look Like a Cop ?
01:16:16.238 : :Lighten Up
01:19:50.452 : :Work to Do
01:23:54.362 : :Arkham's Basement Secrets
01:29:02.754 : :Winged Backup
01:32:36.759 : :Tumbler on the Roof
01:37:49.113 : :This Monster of Yours
01:40:33.777 : :Dual Identities
01:45:09.136 : :Purging Fire
01:49:32.190 : :Inferno Rescue
01:51:29.349 : :Spread the Word: Panic
01:54:49.090 : :What Defines Me
01:58:11.125 : :Catching a Train
02:01:55.099 : :Not Kill but Not Save
02:05:01.285 : :New Owner
02:06:06.976 : :This Is Your Mask
02:09:18.584 : :Calling Card
02:10:57.266 : :End Credits




Скачать Бэтмен: Начало через торрент https://c.radikal.ru/c14/1805/ba/d0956ded2f86.jpg Скачать, смотреть онлайн Бэтмен: Начало бесплантно в хорошем качестве Описание: История о происхождении легенды Брюса Уэйна, юного наследника огромного состояния, потерявшего своих родителей. Покинув родной ... 10 10 5
Торрент: Зарегистрирован [2019-11-05 20:35] · скачан: 87 раз
Статус: √ проверено
Размер: 71.4 GB
Как cкачать? Как скачать Бэтмен: Начало через торрент | UTorrent

28-11-2019 20:33  


Отключить вcю реклaмy на сайте, в т.ч. и в плеере онлайн просмотра!

    Дорогой пользователь! Огромная просьба, поблагодарите релизера, оцените раздачу и оставьте свои комментарий, если Вы скачали Бэтмен: Начало через торрент бесплатно!!
    Комментировать посты могут только пользователи прошедшие не сложную регистрацию
    Показать сообщения:    


    Бэтмен: Начало через торрент
    Скачать бесплатно Бэтмен: Начало
    Бэтмен: Начало скачать торрент
    Бэтмен: Начало смотреть онлайн
    Cкачать фильм Бэтмен: Начало бесплатно
    Бэтмен: Начало скачать торрент в хорошем качестве
    Бэтмен: Начало смотреть онлайн бесплатно в хорошем качестве
    Вы не можете начинать темы
    Вы не можете отвечать на сообщения
    Вы не можете редактировать свои сообщения
    Вы не можете удалять свои сообщения
    Вы не можете голосовать в опросах
    Вы не можете прикреплять файлы к сообщениям
    Вы можете скачивать файлы
    Бэтмен: Начало / Batman Begins [2005, Фэнтези, боевик, драма, приключения, UHD BDRemux 2160p] Дубляж+MVO+2xDVO+4xAVO смотреть онлайн, скачать торрент picoco.icu