новый адрес
Мега распродажа FORZA HORIZON 4 ULTIMATE+ВСЕ DLC+ОНЛАЙН всего за 499р. 349 руб. (супер цена). Внимание количество ограничено!!!

iTunes

1+1

iTunes

мы

iTunes

1

iTunes

Чернобыль

iTunes

Ральф против интернета

Лицензия

ПШазам

Лицензия

Оно 2

Лицензия

30
pack

ВАЖНО

!!Акция!!

Alien_RageХит недели

RePack

Resident Evil 21

ИГРА 18+

pack

RePack

Metro:Exodus

!!Акция!!

Alien_Rage

RePack

fifa19

RePack

Assassins Creed: Odyssey

RePack

NEED FOR SPEED™ PAYBACK

3 сезон

9 сезон

Бесстыжие 9 сезон

Все сериалы

все сериалы на PB.wtf

RePack

FAR CRY 5
Ребята, катастрофически не хватает 1900р. для оплаты серверов за Октябрь (всвязи с блокировками трафик упал в 3 раза), 1-2р., выручайте.
  

Патагония: По следам Дарвина Часть 2: От Камаронес до Скалы Дарвина в 3Д / Patagonia: In the Footsteps of Charles Darwin Part 2: From Camarones to Darwin's Rock 3D (Norbert Vander) [2012, Документальный, BDRip, 1080p] OverUnder / Вертикальная ст piratbit.org

Патагония: По следам Дарвина Часть 2: От Камаронес до Скалы Дарвина в 3Д через торрент piratbit.org

Раздают: 1 [ 0 KB/s ]
Размер: 10.42 GB | Добавлен: 14 д. назад | Торрент скачан:2 раза
Скачать  

06-11-2019 11:12 Патагония: По следам Дарвина Часть 2: От Камаронес до Скалы Дарвина в 3Д Скачать торрент  

Патагония: По следам Дарвина Часть 2: От Камаронес до Скалы Дарвина / Patagonia: In the Footsteps of Charles Darwin Part 2: From Camarones to Darwin's Rock / Patagonien: Auf den Spuren von Charles Darwin
Teil 2: Von Camarones bis Darwins Rock


Год выпуска: 2012
Страна: Германия (New KSM)
Жанр: Документальный
Продолжительность: 00:55:23

Перевод: Профессиональный одноголосый закадровый
Русские субтитры: нет
Режиссер: Norbert Vander

Описание: Патагония — страна бесконечных просторов и нетронутой природы, куда попадают очень немногие. Следуя по маршруту путешествия выдающегося ученого 19 века Чарльза Дарвина, фильм показывает удивительный мир животных и захватывающие дух пейзажи. Полуостров Вальдес — это настоящий райский уголок на восточном побережье Патагонии, который находится под охраной ЮНЕСКО. Вы сможете встретиться с китами, посетить одну из последних колоний морских слонов и понаблюдать за несчетными колониями Магеллановых пингвинов. Вам предоставляется возможность насладиться зрелищем одного из красивейших ландшафтов на Земле.

Сэмпл: http://sendfile.su/1526680

Качество: BDrip, 1080p
Контейнер: MKV
Формат 3D: OverUnder / Вертикальная стереопара
Порядок ракурсов: левый ракурс первый
Видео кодек: x264
Аудио кодек: AC3
Видео: AVC / High@L5.0 / 23,976 fps / 1920х2160 / 25,1 Мбит/сек
Аудио: Русский / AC3 / 48 KHz / 5.1 ch / 640 Кбит/сек
Аудио 2: Английский / AC3 / 48 KHz / 5.1 ch / 640 Кбит/сек

ВНИМАНИЕ ! На встроенных ТВ-плеерах работать не будет!!!

ТВ Samsung в названии которого есть надпись Ultra HD , и LG Ultra HD 800 серии, LG C6P, Xiaomi Mi TV 2 воспроизводят полные стереопары встроенными плеерами
Железные плееры на которых воспроизводятся полные стереопары:Popcorn C-200 , Dune HD Smart D1 , Dune HD DUO , Dune HD Smart H1 , Dune HD Smart B1 , Dune HD Max , Dune HD TV-303D, Dune HD TV-102, Dune HD Base 3D, Philips HMP7001, Aura HD, MECOOL BB2, Zidoo x9s, Lake I Cloud, MiBox 3
Чтобы изображение было на весь экран в плеере выставляем, если рип 1920х1600 - то выставляем 2.35:1 , если 1920х2160 - то выставляем 16:9
Общее
Уникальный идентификатор : 188661325089336546554756806091189856116 (0x8DEED97B0AEF4B0F83152FF39CE12774)
Полное имя : E:\видео\Patagonia. In the Footsteps of Charles Darwin.Rip by SeRoGa00.mkv
Формат : Matroska
Версия формата : Version 2
Размер файла : 10,4 Гбайт
Продолжительность : 55 м.
Общий поток : 26,9 Мбит/сек
Дата кодирования : UTC 2019-11-06 10:13:23
Программа кодирования : mkvmerge v3.4.0 ('Rapunzel') сборка от May 15 2010 09:38:20
Библиотека кодирования : libebml v0.8.0 + libmatroska v0.9.0

Видео
Идентификатор : 1
Формат : AVC
Формат/Информация : Advanced Video Codec
Профиль формата : High@L5.0
Параметр CABAC формата : Да
Параметр ReFrames формата : 4 кадра
Идентификатор кодека : V_MPEG4/ISO/AVC
Продолжительность : 55 м.
Битрейт : 25,1 Мбит/сек
Ширина : 1920 пикселей
Высота : 2160 пикселей
Соотношение сторон : 0,889
Частота кадров : 23,976 кадра/сек
Цветовое пространство : YUV
Субдискретизация насыщенности : 4:2:0
Битовая глубина : 8 бит
Тип развёртки : Прогрессивная
Бит/(Пиксели*Кадры) : 0.253
Размер потока : 9,72 Гбайт (93%)
Заголовок : Rip by SeRoGa00
Библиотека кодирования : x264 core 155 r2901 7d0ff22
Настройки программы : cabac=1 / ref=4 / deblock=1:-3:-3 / analyse=0x3:0x113 / me=umh / subme=10 / psy=1 / psy_rd=1.00:0.15 / mixed_ref=1 / me_range=24 / chroma_me=1 / trellis=2 / 8x8dct=1 / cqm=0 / deadzone=21,11 / fast_pskip=1 / chroma_qp_offset=-3 / threads=18 / lookahead_threads=6 / sliced_threads=0 / nr=0 / decimate=0 / interlaced=0 / bluray_compat=0 / constrained_intra=0 / bframes=10 / b_pyramid=2 / b_adapt=2 / b_bias=0 / direct=3 / weightb=1 / open_gop=0 / weightp=2 / keyint=250 / keyint_min=23 / scenecut=40 / intra_refresh=0 / rc_lookahead=60 / rc=crf / mbtree=1 / crf=17.0 / qcomp=0.60 / qpmin=10 / qpmax=69 / qpstep=4 / vbv_maxrate=40000 / vbv_bufsize=40000 / crf_max=0.0 / nal_hrd=none / filler=0 / ip_ratio=1.40 / aq=1:1.00
Язык : English
Default : Нет
Forced : Нет

Аудио #1
Идентификатор : 2
Формат : AC-3
Формат/Информация : Audio Coding 3
Расширение режима : CM (complete main)
Параметр Endianness формата : Big
Идентификатор кодека : A_AC3
Продолжительность : 55 м.
Вид битрейта : Постоянный
Битрейт : 640 Кбит/сек
Каналы : 6 каналов
Расположение каналов : Front: L C R, Side: L R, LFE
Частота : 48,0 КГц
Битовая глубина : 16 бит
Метод сжатия : С потерями
Размер потока : 254 Мбайт (2%)
Язык : Russian
Default : Да
Forced : Нет

Аудио #2
Идентификатор : 3
Формат : AC-3
Формат/Информация : Audio Coding 3
Расширение режима : CM (complete main)
Параметр Endianness формата : Big
Идентификатор кодека : A_AC3
Продолжительность : 55 м.
Вид битрейта : Постоянный
Битрейт : 640 Кбит/сек
Каналы : 6 каналов
Расположение каналов : Front: L C R, Side: L R, LFE
Частота : 48,0 КГц
Битовая глубина : 16 бит
Метод сжатия : С потерями
Размер потока : 254 Мбайт (2%)
Язык : English
Default : Нет
Forced : Нет

Меню
00:00:00.000 : :1
00:06:41.026 : :2
00:12:23.493 : :3
00:18:27.231 : :4
00:24:28.384 : :5
00:30:31.872 : :6
00:36:27.727 : :7
00:42:32.216 : :8
скриншот  

скриншот  

скриншот  

скриншот  

скриншот  

скриншот  
piratbit.org



Скачать Патагония: По следам Дарвина Часть 2: От Камаронес до Скалы Дарвина в 3Д через торрент https://a.radikal.ru/a08/1911/fb/7640bae2b840.png Скачать фильм Патагония: По следам Дарвина Часть 2: От Камаронес до Скалы Дарвина в 3Д через торрент бесплантно в хорошем качестве Описание: Патагония — страна бесконечных просторов и нетронутой природы, куда попадают очень немногие. Следуя по маршруту путешествия ... 10 10 2
Торрент: Зарегистрирован [2019-11-06 11:12] · скачан: 2 раз
Статус: √ проверено
Размер: 10.42 GB
Как cкачать? Как скачать Патагония: По следам Дарвина Часть 2: От Камаронес до Скалы Дарвина в 3Д через торрент | qTorrent


>> Регистрируемся здесь <<






Отзывы и комментарии о схеме читаем и пишем здесь: ---> Отзывы и комментарии о схеме

Новые благодарочки в телеграм довольных пользователей:
скриншот   скриншот   скриншот   скриншот   скриншот
    Дорогой пользователь! Огромная просьба, поблагодарите релизера, оцените раздачу и оставьте свои комментарий, если Вы скачали Патагония: По следам Дарвина Часть 2: От Камаронес до Скалы Дарвина в 3Д через торрент бесплатно! Внесите свою лепту в развитие PiratBit!
    Комментировать посты могут только пользователи прошедшие не сложную регистрацию
    Показать сообщения:    

    Патагония: По следам Дарвина Часть 2: От Камаронес до Скалы Дарвина в 3Д через торрент
    Скачать бесплатно Патагония: По следам Дарвина Часть 2: От Камаронес до Скалы Дарвина в 3Д
    Патагония: По следам Дарвина Часть 2: От Камаронес до Скалы Дарвина в 3Д скачать торрент
    Патагония: По следам Дарвина Часть 2: От Камаронес до Скалы Дарвина в 3Д смотреть онлайн
    Cкачать фильм Патагония: По следам Дарвина Часть 2: От Камаронес до Скалы Дарвина в 3Д бесплатно
    Патагония: По следам Дарвина Часть 2: От Камаронес до Скалы Дарвина в 3Д скачать торрент в хорошем качестве
    Патагония: По следам Дарвина Часть 2: От Камаронес до Скалы Дарвина в 3Д смотреть онлайн бесплатно в хорошем качестве


    Вы не можете начинать темы
    Вы не можете отвечать на сообщения
    Вы не можете редактировать свои сообщения
    Вы не можете удалять свои сообщения
    Вы не можете голосовать в опросах
    Вы не можете прикреплять файлы к сообщениям
    Вы можете скачивать файлы