Ссылка на приватное зеркало нашего сайта всего за 1$. Внимание количество ограничено!!!

2 сезон

iTunes

1 сезон

1

iTunes

iTunes

iTunes

1 сезон

RePack

30

ИГРА 18+

pack

ВАЖНО

!!Акция!!

Alien_RageХит недели

RePack

MK11
pack

Забери бонус

RePack

jed

!!Акция!!

Alien_Rage

RePack

fifa19

RePack

Assassins Creed: Odyssey

RePack

NEED FOR SPEED™ PAYBACK

4 сезон

9 сезон

Бесстыжие 9 сезон

Все сериалы

все сериалы на PB.wtf

RePack

FAR CRY 5
  

Мы все отправимся в рай / Nous irons tous au paradis (Ив Робер) [1977, комедия, BDRip 720p by msltel] MVO piratbit.org

Мы все отправимся в рай через торрент piratbit.org

Размер: 5.09 GB | Добавлен: 11 мес. назад | Торрент скачан:3 раза
Скачать  

07-11-2019 06:54 Мы все отправимся в рай Скачать торрент  

Название: Мы все отправимся в рай
Оригинальное название: Nous irons tous au paradis
Год выпуска: 1977
Страна: Франция
Жанр: комедия
Продолжительность: 01:51:28
Перевод: закадровый многоголосый

Режиссер: Ив Робер
В ролях: Жан Рошфор, Клод Брассёр, Ги Бедос, Виктор Лану, Даниэль Делорм, Марта Виллалонга, Дженни Арассе, Жозиан Баласко, Энн-Мари Бло, Элизабет Маргони

О фильме: Четверо главных героев Даниэль, Этьен, Булли и Симон — неразлучные друзья, и они также постоянно попадают в курьёзные ситуации, которые не обходятся без участия женщин...



Качество: BDRip 720p
Формат: MKV
Видео: MPEG-4 AVC, 6148 Кбит/с, 1196x720
Аудио 1: русский, AC3, 192 kbps, 2 ch, 48 kHz [закадровый многоголосый, т/к Россия]
Аудио 2: французский, AC3, 192 kbps, 2 ch, 48 kHz [оригинал]
Субтитры: английские
Главы/чаптеры
Общее
Уникальный идентификатор : 217240923874383283474066659504777533051 (0xA36F147DBCCE04C0992195D12033167B)
Полное имя : D:\Video\Мы все отправимся в рай.1977.BDRip 720p by msltel.mkv
Формат : Matroska
Версия формата : Version 4
Размер файла : 5,09 Гбайт
Продолжительность : 1 ч. 51 м.
Общий поток : 6533 Кбит/сек
Название фильма : Rip by msltel
Дата кодирования : UTC 2019-11-07 02:09:58
Программа кодирования : mkvmerge v8.2.0 ('World of Adventure') 64bit
Библиотека кодирования : libebml v1.3.1 + libmatroska v1.4.2

Видео
Идентификатор : 1
Формат : AVC
Формат/Информация : Advanced Video Codec
Профиль формата : High@L4.1
Настройки формата : CABAC / 9 Ref Frames
Параметр CABAC формата : Да
Параметр RefFrames формата : 9 кадров
Идентификатор кодека : V_MPEG4/ISO/AVC
Продолжительность : 1 ч. 51 м.
Битрейт : 6148 Кбит/сек
Ширина : 1196 пикселей
Высота : 720 пикселей
Соотношение сторон : 5:3
Режим частоты кадров : Постоянный
Частота кадров : 24,000 кадра/сек
Цветовое пространство : YUV
Субдискретизация насыщенности : 4:2:0
Битовая глубина : 8 бит
Тип развёртки : Прогрессивная
Бит/(Пиксели*Кадры) : 0.297
Размер потока : 4,79 Гбайт (94%)
Библиотека кодирования : x264 core 157 r2935 545de2f
Настройки программы : cabac=1 / ref=9 / deblock=1:-2:-2 / analyse=0x3:0x113 / me=umh / subme=11 / psy=1 / psy_rd=1.00:0.15 / mixed_ref=1 / me_range=32 / chroma_me=1 / trellis=2 / 8x8dct=1 / cqm=0 / deadzone=21,11 / fast_pskip=0 / chroma_qp_offset=-3 / threads=6 / lookahead_threads=1 / sliced_threads=0 / nr=0 / decimate=1 / interlaced=0 / bluray_compat=0 / constrained_intra=0 / bframes=9 / b_pyramid=2 / b_adapt=2 / b_bias=0 / direct=1 / weightb=1 / open_gop=0 / weightp=2 / keyint=230 / keyint_min=23 / scenecut=40 / intra_refresh=0 / rc_lookahead=40 / rc=crf / mbtree=1 / crf=18.0 / qcomp=0.60 / qpmin=0 / qpmax=69 / qpstep=4 / vbv_maxrate=50000 / vbv_bufsize=62500 / crf_max=0.0 / nal_hrd=none / filler=0 / ip_ratio=1.40 / aq=1:1.00
Язык : French
Default : Да
Forced : Нет

Аудио #1
Идентификатор : 2
Формат : AC-3
Формат/Информация : Audio Coding 3
Коммерческое название : Dolby Digital
Идентификатор кодека : A_AC3
Продолжительность : 1 ч. 51 м.
Вид битрейта : Постоянный
Битрейт : 192 Кбит/сек
Каналы : 2 канала
ChannelLayout : L R
Частота : 48,0 КГц
Частота кадров : 31,250 кадров/сек (1536 SPF)
Метод сжатия : С потерями
Размер потока : 153 Мбайт (3%)
Заголовок : MVO тк Россия
Язык : Russian
ServiceKind/String : Complete Main
Default : Да
Forced : Нет

Аудио #2
Идентификатор : 3
Формат : AC-3
Формат/Информация : Audio Coding 3
Коммерческое название : Dolby Digital
Идентификатор кодека : A_AC3
Продолжительность : 1 ч. 51 м.
Вид битрейта : Постоянный
Битрейт : 192 Кбит/сек
Каналы : 2 канала
ChannelLayout : L R
Частота : 48,0 КГц
Частота кадров : 31,250 кадров/сек (1536 SPF)
Метод сжатия : С потерями
Размер потока : 153 Мбайт (3%)
Заголовок : original
Язык : French
ServiceKind/String : Complete Main
Default : Нет
Forced : Нет

Текст
Идентификатор : 4
Формат : UTF-8
Идентификатор кодека : S_TEXT/UTF8
Идентификатор кодека/Информация : UTF-8 Plain Text
Продолжительность : 1 ч. 50 м.
Битрейт : 54 бит/сек
ElementCount : 1457
Размер потока : 44,4 Кбайт (0%)
Заголовок : английские
Язык : English
Default : Нет
Forced : Нет

Меню
00:00:00.000 : :Chapter 1
00:09:30.541 : :Chapter 2
00:18:15.875 : :Chapter 3
00:25:29.208 : :Chapter 4
00:33:36.665 : :Chapter 5
00:41:36.583 : :Chapter 6
00:50:22.666 : :Chapter 7
01:00:40.625 : :Chapter 8
01:12:16.041 : :Chapter 9
01:20:20.082 : :Chapter 10
01:33:08.957 : :Chapter 11
01:42:10.125 : :Chapter 12
01:51:27.832 : :Chapter 13
piratbit.org



Скачать Мы все отправимся в рай через торрент https://b.radikal.ru/b25/1911/18/5f1cba7126f3.jpg Скачать фильм Мы все отправимся в рай через торрент бесплантно в хорошем качестве О фильме: Четверо главных героев Даниэль, Этьен, Булли и Симон — неразлучные друзья, и они также постоянно попадают в курьёзные ситуации, ... 5 10 1
Торрент: Зарегистрирован [2019-11-07 06:54] · скачан: 3 раз
Статус: √ проверено
Размер: 5.09 GB
Как cкачать? Как скачать Мы все отправимся в рай через торрент | qTorrent

% Раздел Тема Автор DL S | L
Классика зарубежного кино [ 13.78 GB ] Мы все отправимся в рай / Nous irons tous au paradis [1977 BDRip 1080p by msltel] MVO msltel Скачать
1 | 0

28-11-2019 20:33  

Отключить всю рекламу на сайте

    Дорогой пользователь! Огромная просьба, поблагодарите релизера, оцените раздачу и оставьте свои комментарий, если Вы скачали Мы все отправимся в рай через торрент бесплатно! Внесите свою лепту в развитие PiratBit!
    Комментировать посты могут только пользователи прошедшие не сложную регистрацию
    Показать сообщения:    

    Мы все отправимся в рай через торрент
    Скачать бесплатно Мы все отправимся в рай
    Мы все отправимся в рай скачать торрент
    Мы все отправимся в рай смотреть онлайн
    Cкачать фильм Мы все отправимся в рай бесплатно
    Мы все отправимся в рай скачать торрент в хорошем качестве
    Мы все отправимся в рай смотреть онлайн бесплатно в хорошем качестве


    Вы не можете начинать темы
    Вы не можете отвечать на сообщения
    Вы не можете редактировать свои сообщения
    Вы не можете удалять свои сообщения
    Вы не можете голосовать в опросах
    Вы не можете прикреплять файлы к сообщениям
    Вы можете скачивать файлы