Доктор Стрэндж

Лицензия

Добыча

MVO

Дом дракона

1 сезон

Тор

Лицензия

Мэверик

Лицензия

Там, где раки поют

MVO

Властелин колец

1 сезон

Ultimate

pack

Рекомендуем

30

Repack

ВАЖНО

ВАЖНО

Ghostwire

RePack

jed

RePack

nioh2

RePack

RDR2

RePack

NEED FOR SPEED™ PAYBACK

RePack

скачать торрент

Кинопоиск HD

Острые козырьки 6 сезон

6 сезон

FAR CRY 6

RePack

скачать торрент

Лицензия

скачать торрент

MVO

1

1 сезон

скачать торрент

1 сезон

скачать торрент

Лицензия

  

Большая руда (Василий Ордынский) [1964, СССР, драма, WEB-DLRip от AVP Studio]

Большая руда через торрент piratbit.org

Размер: 745 MB | Добавлен: 2 года 10 мес. назад | Торрент скачан:36 раз
Смотреть онлайн | Скачать   

07-11-2019 09:39 Большая руда Скачать торрент  

Большая руда
Страна: СССР
Производство: Мосфильм

Жанр: драма
Год выпуска: 1964
Продолжительность: 01:24:12

Перевод: Не требуется
Cубтитры: нет
Оригинальная аудиодорожка: русский

Режиссер: Василий Ордынский

В ролях:
Евгений Урбанский, Всеволод Санаев, Станислав Любшин, Борис Юрченко, Михаил Глузский, Роман Хомятов, Юрий Легков, Лариса Лужина, Инна Макарова, Валентин Никулин, Георгий Жжёнов, Светлана Жгун...
Об актёрах подробней

Описание:
Виктор Пронякин вернулся из армии к невесте, а у нее — другой. Рванул Виктор на «большую» курскую руду. А работы здесь — в самом разгаре: все живут ожиданием первой машины с рудой. Чтобы проверить «новенького», бригадир дает ему побитый МАЗ: починит — значит надолго пришел. Парень устроился в «общаге», починил машину, и стал ставить один за другим рекорды. Друзей Пронякин не заимел, озлобил против себя всю бригаду, но ковш первой руды повез именно он…

Источник: WEB-DL 720p
Качество видео: WEB-DLRip
Формат видео: AVI

Видео: 720х400 (16:9), 25 fps, XviD ~ 1035 kbps avg, 0.144 bit/pixel
Аудио: 48 kHz, Dolby Digital AC3 2.0, 192 kbps

Раздача от:
Общее
Полное имя : Bolshaya.ruda.1964.HDTVRip_[New-team]_by_AVP_Studio.avi
Формат : AVI
Формат/Информация : Audio Video Interleave
Размер файла : 745 Мбайт
Продолжительность : 1 ч. 24 м.
Общий поток : 1237 Кбит/сек
Программа кодирования : VirtualDubMod 1.5.10.3 | www.virtualdub-fr.org || (build 2550/release)
Библиотека кодирования : VirtualDubMod build 2550/release

Видео
Идентификатор : 0
Формат : MPEG-4 Visual
Профиль формата : Advanced Simple@L5
Настройки формата : BVOP1 / Custom Matrix
Параметр BVOP формата : 1
Параметр QPel формата : Нет
Параметр GMC формата : Без точки перехода
Параметр матрицы формата : Выборочная
Идентификатор кодека : XVID
Идентификатор кодека/Подсказка : XviD
Продолжительность : 1 ч. 24 м.
Битрейт : 1035 Кбит/сек
Ширина : 720 пикселей
Высота : 400 пикселей
Соотношение сторон : 16:9
Частота кадров : 25,000 кадров/сек
Цветовое пространство : YUV
Субдискретизация насыщенности : 4:2:0
Битовая глубина : 8 бит
Тип развёртки : Прогрессивная
Метод сжатия : С потерями
Бит/(Пиксели*Кадры) : 0.144
Размер потока : 624 Мбайт (84%)
Библиотека кодирования : XviD 73

Аудио
Идентификатор : 1
Формат : AC-3
Формат/Информация : Audio Coding 3
Коммерческое название : Dolby Digital
Идентификатор кодека : 2000
Продолжительность : 1 ч. 24 м.
Вид битрейта : Постоянный
Битрейт : 192 Кбит/сек
Каналы : 2 канала
ChannelLayout : L R
Частота : 48,0 КГц
Частота кадров : 31,250 кадров/сек (1536 SPF)
Битовая глубина : 16 бит
Метод сжатия : С потерями
Размер потока : 116 Мбайт (16%)
Выравнивание : Разделение по промежуткам
Продолжительность промежутка : 40 мс. (1,00 видеокадр)
Время предзагрузки промежутка : 500 мс



Скачать Большая руда через торрент http://d.radikal.ru/d04/1912/b9/ceaf2f8b958d.png Скачать, смотреть онлайн Большая руда бесплантно в хорошем качестве Описание:Виктор Пронякин вернулся из армии к невесте, а у нее — другой. Рванул Виктор на «большую» курскую руду. А работы здесь — в самом ... 5 10 1
Info! Золотая раздача, скачанное не засчитывается.
Торрент: Зарегистрирован [2019-11-07 09:39] · скачан: 36 раз
Статус: √ проверено
Размер: 745 MB
Как cкачать? Как скачать Большая руда через торрент | UTorrent

% Раздел Тема Автор DL S | L
Кино СССР [ 1.46 GB ] Большая руда | | DLRip-AVC от AVP Studio AVP Studio Скачать
2 | 0

28-11-2019 20:33  


Отключить вcю реклaмy на сайте, в т.ч. и в плеере онлайн просмотра!

    Дорогой пользователь! Огромная просьба, поблагодарите релизера, оцените раздачу и оставьте свои комментарий, если Вы скачали Большая руда через торрент бесплатно!!
    Комментировать посты могут только пользователи прошедшие не сложную регистрацию
    Показать сообщения:    


    Большая руда через торрент
    Скачать бесплатно Большая руда
    Большая руда скачать торрент
    Большая руда смотреть онлайн
    Cкачать фильм Большая руда бесплатно
    Большая руда скачать торрент в хорошем качестве
    Большая руда смотреть онлайн бесплатно в хорошем качестве
    Вы не можете начинать темы
    Вы не можете отвечать на сообщения
    Вы не можете редактировать свои сообщения
    Вы не можете удалять свои сообщения
    Вы не можете голосовать в опросах
    Вы не можете прикреплять файлы к сообщениям
    Вы можете скачивать файлы