новый адрес
Ссылка на приватное зеркало всего за 1$. Внимание количество ограничено!!!

iTunes

1+1

iTunes

мы

WEB-DL

1

iTunes

Чернобыль

iTunes

Ральф против интернета

Лицензия

ПШазам

Лицензия

Оно 2

Лицензия

30
pack

Вам бонус

ВАЖНО

!!Акция!!

Alien_RageХит недели

RePack

Resident Evil 21

ИГРА 18+

pack

RePack

jed

!!Акция!!

Alien_Rage

RePack

fifa19

RePack

Assassins Creed: Odyssey

RePack

NEED FOR SPEED™ PAYBACK

3 сезон

9 сезон

Бесстыжие 9 сезон

Все сериалы

все сериалы на PB.wtf

RePack

FAR CRY 5
Ребята, катастрофически не хватает 1900р. для оплаты серверов за Октябрь (всвязи с блокировками трафик упал в 3 раза), 1-2р., выручайте.
  

Темные начала / His Dark Materials / Сезон 1 / Серии 1-5 из 8 (Джейми Чайлдс, Отто Батхёрст, Том Хупер) [2019, фэнтези, драма, приключения, семейный, WEB-DL 720p] [MVO] (AlexFilm) piratbit.org

Темные начала через торрент piratbit.org

Раздают: 1 [ 359 KB/s ]
Размер: 11.73 GB | Добавлен: 2 д. 3 ч. назад | Торрент скачан:1 раз
Скачать  

08-11-2019 12:41 Темные начала Скачать торрент  

Темные начала / His Dark Materials
Год выпуска: 2019
Страна: Великобритания, США
Жанр: фэнтези, драма, приключения, семейный
Продолжительность: ~ 00:55:00
Перевод: Профессиональный (многоголосый, закадровый) AlexFilm
субтитры: Rus (FOCS, Forced), Eng (SDH)

Режиссёр: Джейми Чайлдс, Отто Батхёрст, Том Хупер

В ролях: Дафни Кин, Джеймс МакЭвой, Рут Уилсон, Лин-Мануэль Миранда, Кларк Питерс, Иэн Гелдер, Уилл Кин, Эрион Бакаре, Джорджина Кэмпбелл, Энн-Мэри Дафф

Описание: Лира Белаква живёт в мире, где существуют ведьмы и бронированные медведи, а у людей есть деймоны — существа, составляющие неотъемлемую часть их личностей. Опекун девочки, исследователь лорд Азриэл, находит способ передвигаться между параллельными землями, благодаря чему Лира знакомится с мальчиком Уиллом, который живёт в мире, лишённом магии.

скриншот  

rating скриншот  

Качество: WEB-DL 720p
Формат: MKV
Видео: 1280х720, 25 fps, MPEG-4 AVC ~5 600 kbps avg
Аудио Rus: 48 kHz, AC3 Dolby Digital, 3/2 (L,C,R,l,r) + LFE ch, ~384.00 kbps
Аудио Eng: 48 kHz, AC3 Dolby Digital, 3/2 (L,C,R,l,r) + LFE ch, ~384.00 kbps
Рип - kogesan

Перевод: Константин Кривоногов
Монтаж и сведение звука: Михаил Шорыгин

Роли озвучивали:
Екатерина Муравицкая
Нана Саркисян
Константин Федосеев
Кирилл Патрино
Михаил Цареградский
Общее
Уникальный идентификатор : 214176773213473827994178716813898052144 (0xA120F2331CA82BABA64FFA13B1F07230)
Полное имя : E:\_Сериалы\_Сериалы\Тёмные начала\His.Dark.Materials.S01.720p.WEB-DL.AlexFilm\His.Dark.Materials.s01e01.WEB-DL.720p.Rus.Eng.AlexFilm.mkv
Формат : Matroska
Версия формата : Version 4
Размер файла : 2,43 Гбайт
Продолжительность : 54 м. 38 с.
Общий поток : 6372 Кбит/сек
Название фильма : His Dark Materials 1x01 @ AlexFilm
Дата кодирования : UTC 2019-11-08 15:41:57
Программа кодирования : mkvmerge v38.0.0 ('The Silent Type') 64-bit
Библиотека кодирования : libebml v1.3.9 + libmatroska v1.5.2

Видео
Идентификатор : 1
Формат : AVC
Формат/Информация : Advanced Video Codec
Профиль формата : High@L3.1
Настройки формата : CABAC / 4 Ref Frames
Параметр CABAC формата : Да
Параметр RefFrames формата : 4 кадра
Идентификатор кодека : V_MPEG4/ISO/AVC
Продолжительность : 54 м. 38 с.
Вид битрейта : Постоянный
Битрейт : 5601 Кбит/сек
Номинальный битрейт : 6000 Кбит/сек
Ширина : 1280 пикселей
Высота : 720 пикселей
Соотношение сторон : 16:9
Режим частоты кадров : Постоянный
Частота кадров : 25,000 кадров/сек
Цветовое пространство : YUV
Субдискретизация насыщенности : 4:2:0
Битовая глубина : 8 бит
Тип развёртки : Прогрессивная
Бит/(Пиксели*Кадры) : 0.243
Размер потока : 2,14 Гбайт (88%)
Язык : English
Default : Да
Forced : Нет
Цветовой диапазон : Limited
Основные цвета : BT.709
Характеристики трансфера : BT.709
Коэффициенты матрицы : BT.709

Аудио #1
Идентификатор : 2
Формат : AC-3
Формат/Информация : Audio Coding 3
Коммерческое название : Dolby Digital
Идентификатор кодека : A_AC3
Продолжительность : 54 м. 38 с.
Вид битрейта : Постоянный
Битрейт : 384 Кбит/сек
Каналы : 6 каналов
ChannelLayout : L R C LFE Ls Rs
Частота : 48,0 КГц
Частота кадров : 31,250 кадров/сек (1536 SPF)
Метод сжатия : С потерями
Размер потока : 150 Мбайт (6%)
Язык : Russian
ServiceKind/String : Complete Main
Default : Да
Forced : Нет

Аудио #2
Идентификатор : 3
Формат : AC-3
Формат/Информация : Audio Coding 3
Коммерческое название : Dolby Digital
Идентификатор кодека : A_AC3
Продолжительность : 54 м. 38 с.
Вид битрейта : Постоянный
Битрейт : 384 Кбит/сек
Каналы : 6 каналов
ChannelLayout : L R C LFE Ls Rs
Частота : 48,0 КГц
Частота кадров : 31,250 кадров/сек (1536 SPF)
Метод сжатия : С потерями
Размер потока : 150 Мбайт (6%)
Заголовок : DD5.1 Original
Язык : English
ServiceKind/String : Complete Main
Default : Нет
Forced : Нет

Текст #1
Идентификатор : 4
Формат : ASS
Идентификатор кодека : S_TEXT/ASS
Идентификатор кодека/Информация : Advanced Sub Station Alpha
Продолжительность : 4 с. 760 мс.
Битрейт : 393 бит/сек
ElementCount : 2
Метод сжатия : Без потерь
Размер потока : 234 байт (0%)
Язык : Russian
Default : Да
Forced : Да

Текст #2
Идентификатор : 5
Формат : UTF-8
Идентификатор кодека : S_TEXT/UTF8
Идентификатор кодека/Информация : UTF-8 Plain Text
Продолжительность : 53 м. 20 с.
Битрейт : 103 бит/сек
ElementCount : 760
Размер потока : 40,4 Кбайт (0%)
Язык : Russian
Default : Нет
Forced : Нет

Текст #3
Идентификатор : 6
Формат : UTF-8
Идентификатор кодека : S_TEXT/UTF8
Идентификатор кодека/Информация : UTF-8 Plain Text
Продолжительность : 53 м. 10 с.
Битрейт : 61 бит/сек
ElementCount : 781
Размер потока : 23,8 Кбайт (0%)
Язык : English
Default : Нет
Forced : Нет
скриншот   скриншот   скриншот  
Когда раздача ведётся путём добавления новых серий, при каждом добавлении создётся новый торрент. Чтобы начать докачку новой серии, пользователям необходимо сделать следующее:
(1) остановить скачивание,
(2) удалить старый торрент у себя из клиента (старые серии удалять не надо),
(3) скачать новый торрент и запустить его у себя в клиенте вместо старого, при этом указать клиенту путь в старую папку, куда и должно происходить скачивание новых серий.
Ваш клиент при этом должен произвести хеширование (проверку) старой папки (если не производит сам - помогите ему сделать это), и будет докачивать только те серии, которых у вас ещё нет. Старые серии при этом не удаляются, а продолжают раздаваться!
Eсли вы уже удалили старые серии, то предотвратить повторную закачку старых серий можно, отжав галочку в соответсвующих местах при запуске нового торрента. По возможности, желательно не удалять старые серии как можно дольше, чтобы релизёр не столько продолжал раздавать старые серии, а смог сконцентрироваться на новых.
piratbit.org



Скачать Темные начала через торрент https://i87.fastpic.ru/big/2019/1104/f7/c209bec3fb45ec372d42bfe4e97dfaf7.jpg Скачать фильм Темные начала через торрент бесплантно в хорошем качестве Описание: Лира Белаква живёт в мире, где существуют ведьмы и бронированные медведи, а у людей есть деймоны — существа, составляющие ... 5.5 10 4
Торрент: Зарегистрирован [2019-12-04 18:52] · скачан: 1 раз
Статус: √ проверено
Размер: 11.73 GB
Как cкачать? Как скачать Темные начала через торрент | qTorrent

% Раздел Тема Автор DL S | L
Зарубежные сериалы [ 21.82 GB ] Тёмные начала / His Dark Materials / Сезон: 1 / Серии: 1-5 из 8 [2019 WEB-DL 1080p] DUB [Amedia] + MVO [HDRezka Studio] bober100 Скачать
4 | 5
Зарубежные сериалы [ 3.31 GB ] Темные начала / His Dark Materials / Сезон 1 / Серии 1-5 из 8 [2019 WEB-DLRip] [MVO] killermax2013 Скачать
3 | 3
Зарубежные сериалы [ 20.58 GB ] Темные начала / His Dark Materials / Сезон: 1 / Серии: 1-5 из 8 [2019 WEB-DL 1080p] MVO [Lostfilm] bober100 Скачать
1 | 3
Зарубежные сериалы [ 20.08 GB ] Тёмные начала / His Dark Materials / Сезон: 1 / Серии: 1-5 из 8 [2019 WEB-DL 1080p] MVO [TVShows] bober100 Скачать
3 | 2
Зарубежные сериалы [ 16.91 GB ] Тёмные начала / His Dark Materials / Сезон: 1 / Серии: 1-5 из 8 [2019 WEB-DL 720p] + 4x[MVO] killermax2013 Скачать
1 | 1
Зарубежные сериалы [ 12.23 GB ] Тёмные начала / His Dark Materials / Сезон: 1 / Серии: 1-5 из 8 [2019 WEB-DL 720p] MVO [TVShows] bober100 Скачать
1 | 0
Зарубежные сериалы [ 14.02 GB ] Темные начала / His Dark Materials / Сезон: 1 / Серии: 1-5 из 8 [2019 WEB-DL 720p] DUB [Amedia] MVO [HDrezka Studio] bober100 Скачать
2 | 2

28-11-2019 20:33  

Отключить всю рекламу на сайте

    Дорогой пользователь! Огромная просьба, поблагодарите релизера, оцените раздачу и оставьте свои комментарий, если Вы скачали Темные начала через торрент бесплатно! Внесите свою лепту в развитие PiratBit!
    Комментировать посты могут только пользователи прошедшие не сложную регистрацию
    Показать сообщения:    

    Темные начала через торрент
    Скачать бесплатно Темные начала
    Темные начала скачать торрент
    Темные начала смотреть онлайн
    Cкачать фильм Темные начала бесплатно
    Темные начала скачать торрент в хорошем качестве
    Темные начала смотреть онлайн бесплатно в хорошем качестве


    Вы не можете начинать темы
    Вы не можете отвечать на сообщения
    Вы не можете редактировать свои сообщения
    Вы не можете удалять свои сообщения
    Вы не можете голосовать в опросах
    Вы не можете прикреплять файлы к сообщениям
    Вы можете скачивать файлы