Ссылка на приватное зеркало нашего сайта всего за 1$. Внимание количество ограничено!!!

2 сезон

iTunes

1 сезон

1

iTunes

iTunes

iTunes

1 сезон

RePack

30

ИГРА 18+

pack

ВАЖНО

!!Акция!!

Alien_RageХит недели

RePack

MK11
pack

Забери бонус

RePack

jed

!!Акция!!

Alien_Rage

RePack

fifa19

RePack

Assassins Creed: Odyssey

RePack

NEED FOR SPEED™ PAYBACK

4 сезон

9 сезон

Бесстыжие 9 сезон

Все сериалы

все сериалы на PB.wtf

RePack

FAR CRY 5
  

Китайцы в Париже / Les Chinois a Paris (Жан Янн) [1974, фэнтези, комедия, BDRip 1080p by msltel] VO (профессиональный) piratbit.org

Китайцы в Париже через торрент piratbit.org

Размер: 14.06 GB | Добавлен: 11 мес. назад | Торрент скачан:2 раза
Скачать  

09-11-2019 06:54 Китайцы в Париже Скачать торрент  

Название: Китайцы в Париже
Оригинальное название: Les Chinois a Paris
Год выпуска: 1974
Страна: Франция, Италия
Жанр: фэнтези, комедия
Продолжительность: 01:54:59
Перевод: закадровый одноголосый

Режиссер: Жан Янн
В ролях: Жан Янн, Николь Кальфан, Маша Мериль, Мишель Серро, Кёдзо Нагацука, Жорж Вильсон, Жак Франсуа, Фернан Леду, Поль Пребуа, Даниэль Прево, Бернар Блие, Ив Барсак, Мишель Шаррель, Рауль Гилад, Поль Мерси, Фернан Берсе, Жан-Мари Бон, Макс Деро, Робер Фавар, Андре Гэллард, Жак Галлан, Жорж Леон, Жан-Луи Мори, Кристиан Ноэль, Тэдди Вригно

О фильме: Фильм повествует об оккупации Парижа, Франции и всей Европы народной армией КНР. Правда, фильм не столько об оккупантах, сколько о самих французах, которые дружно пополняют ряды коллаборационистов. Стучат на своих, носят кепки-маодзедуновки, ставят в угоду завоевателям «Кармен» с китайской героиней и прочее. Как же изгнать китайскую армию из своей страны без войны? Став для них и для всей Европы примером «плохого поведения», примером того, чего делать не надо. Многие французы с удовольствием принимаются за выполнение этой миссии...



Качество: BDRip 1080p
Формат: MKV
Видео: MPEG-4 AVC, 16.5 Mбит/с, 1800x1080
Аудио 1: русский, AC3, 192 kbps, 2 ch, 48 kHz [закадровый одноголосый, Виктор Рутилов по субтитрам Lisok]
Аудио 2: французский, DTS, 768 kbps, 2 ch, 48 kHz [оригинал]
Субтитры: русские (Lisok)
Главы/чаптеры
Общее
Уникальный идентификатор : 180776846798838446181054166979833868807 (0x88005AB023C406ABAA92F5BBB201B207)
Полное имя : D:\Video\Китайцы в Париже.1974.BDRip 1080p by msltel.mkv
Формат : Matroska
Версия формата : Version 4
Размер файла : 14,1 Гбайт
Продолжительность : 1 ч. 54 м.
Общий поток : 17,5 Мбит/сек
Название фильма : Rip by msltel
Дата кодирования : UTC 2019-11-09 02:31:44
Программа кодирования : mkvmerge v8.2.0 ('World of Adventure') 64bit
Библиотека кодирования : libebml v1.3.1 + libmatroska v1.4.2

Видео
Идентификатор : 1
Формат : AVC
Формат/Информация : Advanced Video Codec
Профиль формата : High@L4.1
Настройки формата : CABAC / 4 Ref Frames
Параметр CABAC формата : Да
Параметр RefFrames формата : 4 кадра
Идентификатор кодека : V_MPEG4/ISO/AVC
Продолжительность : 1 ч. 54 м.
Битрейт : 16,5 Мбит/сек
Ширина : 1800 пикселей
Высота : 1080 пикселей
Соотношение сторон : 5:3
Режим частоты кадров : Постоянный
Частота кадров : 24,000 кадра/сек
Цветовое пространство : YUV
Субдискретизация насыщенности : 4:2:0
Битовая глубина : 8 бит
Тип развёртки : Прогрессивная
Бит/(Пиксели*Кадры) : 0.355
Размер потока : 13,3 Гбайт (94%)
Библиотека кодирования : x264 core 157 r2935 545de2f
Настройки программы : cabac=1 / ref=4 / deblock=1:-2:-2 / analyse=0x3:0x113 / me=umh / subme=11 / psy=1 / psy_rd=1.00:0.15 / mixed_ref=1 / me_range=32 / chroma_me=1 / trellis=2 / 8x8dct=1 / cqm=0 / deadzone=21,11 / fast_pskip=0 / chroma_qp_offset=-3 / threads=6 / lookahead_threads=1 / sliced_threads=0 / nr=0 / decimate=1 / interlaced=0 / bluray_compat=0 / constrained_intra=0 / bframes=10 / b_pyramid=2 / b_adapt=2 / b_bias=0 / direct=1 / weightb=1 / open_gop=0 / weightp=2 / keyint=230 / keyint_min=23 / scenecut=40 / intra_refresh=0 / rc_lookahead=40 / rc=crf / mbtree=1 / crf=21.5 / qcomp=0.60 / qpmin=0 / qpmax=69 / qpstep=4 / vbv_maxrate=50000 / vbv_bufsize=62500 / crf_max=0.0 / nal_hrd=none / filler=0 / ip_ratio=1.40 / aq=1:1.00
Язык : French
Default : Да
Forced : Нет

Аудио #1
Идентификатор : 2
Формат : AC-3
Формат/Информация : Audio Coding 3
Коммерческое название : Dolby Digital
Идентификатор кодека : A_AC3
Продолжительность : 1 ч. 54 м.
Вид битрейта : Постоянный
Битрейт : 192 Кбит/сек
Каналы : 2 канала
ChannelLayout : L R
Частота : 48,0 КГц
Частота кадров : 31,250 кадров/сек (1536 SPF)
Метод сжатия : С потерями
Размер потока : 158 Мбайт (1%)
Заголовок : Виктор Рутилов по переводу Lisok
Язык : Russian
ServiceKind/String : Complete Main
Default : Да
Forced : Нет

Аудио #2
Идентификатор : 4
Формат : DTS
Формат/Информация : Digital Theater Systems
Идентификатор кодека : A_DTS
Продолжительность : 1 ч. 54 м.
Вид битрейта : Постоянный
Битрейт : 768 Кбит/сек
Каналы : 2 канала
ChannelLayout : L R
Частота : 48,0 КГц
Частота кадров : 93,750 кадра/сек (512 SPF)
Битовая глубина : 24 бит
Метод сжатия : С потерями
Размер потока : 632 Мбайт (4%)
Заголовок : original
Язык : French
Default : Нет
Forced : Нет

Текст
Идентификатор : 3
Формат : UTF-8
Идентификатор кодека : S_TEXT/UTF8
Идентификатор кодека/Информация : UTF-8 Plain Text
Продолжительность : 1 ч. 51 м.
Битрейт : 109 бит/сек
ElementCount : 1285
Размер потока : 89,0 Кбайт (0%)
Заголовок : русские Lisok
Язык : Russian
Default : Нет
Forced : Нет

Меню
00:00:00.000 : :Глава 01
00:09:52.375 : :Глава 02
00:19:20.875 : :Глава 03
00:27:56.583 : :Глава 04
00:37:56.583 : :Глава 05
00:47:11.666 : :Глава 06
00:54:56.833 : :Глава 07
01:06:13.541 : :Глава 08
01:15:42.000 : :Глава 09
01:25:15.166 : :Глава 10
01:35:14.208 : :Глава 11
01:44:46.791 : :Глава 12
piratbit.org



Скачать Китайцы в Париже через торрент https://d.radikal.ru/d26/1911/1d/a470ea72e457.jpg Скачать фильм Китайцы в Париже через торрент бесплантно в хорошем качестве О фильме: Фильм повествует об оккупации Парижа, Франции и всей Европы народной армией КНР. Правда, фильм не столько об оккупантах, сколько ... 5 10 1
Торрент: Зарегистрирован [2019-11-09 06:54] · скачан: 2 раз
Статус: √ проверено
Размер: 14.06 GB
Как cкачать? Как скачать Китайцы в Париже через торрент | qTorrent

% Раздел Тема Автор DL S | L
Классика зарубежного кино [ 4.58 GB ] Китайцы в Париже / Les Chinois a Paris [1974 BDRip 720p by msltel] VO msltel Скачать
1 | 0

28-11-2019 20:33  

Отключить всю рекламу на сайте

    Дорогой пользователь! Огромная просьба, поблагодарите релизера, оцените раздачу и оставьте свои комментарий, если Вы скачали Китайцы в Париже через торрент бесплатно! Внесите свою лепту в развитие PiratBit!
    Комментировать посты могут только пользователи прошедшие не сложную регистрацию
    Показать сообщения:    

    Китайцы в Париже через торрент
    Скачать бесплатно Китайцы в Париже
    Китайцы в Париже скачать торрент
    Китайцы в Париже смотреть онлайн
    Cкачать фильм Китайцы в Париже бесплатно
    Китайцы в Париже скачать торрент в хорошем качестве
    Китайцы в Париже смотреть онлайн бесплатно в хорошем качестве


    Вы не можете начинать темы
    Вы не можете отвечать на сообщения
    Вы не можете редактировать свои сообщения
    Вы не можете удалять свои сообщения
    Вы не можете голосовать в опросах
    Вы не можете прикреплять файлы к сообщениям
    Вы можете скачивать файлы