Доктор Стрэндж

Лицензия

Добыча

Дубляж

Уэнсдэй

1 сезон

Тор

Дубляж

В эфире

Дубляж

Там, где раки поют

MVO

Властелин колец

1 сезон

Deluxe

pack

Рекомендуем

30

Пиратка

ВАЖНО

ВАЖНО

Ghostwire

Пиратка

jed

RePack

nioh2

RePack

RDR2

RePack

NEED FOR SPEED™ PAYBACK

RePack

скачать торрент

Кинопоиск HD

Острые козырьки 6 сезон

6 сезон

FAR CRY 6

RePack

скачать торрент

Лицензия

скачать торрент

MVO

1

1 сезон

скачать торрент

1 сезон

скачать торрент

Лицензия

  

Сильный испуг / Fright (Питер Коллинсон) [1971, триллер, BDRip 720p ] DVO

Сильный испуг через торрент piratbit.org

Размер: 3.92 GB | Добавлен: 3 года назад | Торрент скачан:5 раз
Смотреть онлайн | Скачать   

09-11-2019 09:57 Сильный испуг Скачать торрент  

Название: Сильный испуг
Оригинальное название: Fright
Год выпуска: 1971
Страна: Великобритания
Жанр: триллер
Продолжительность: 01:27:40
Перевод: закадровый двухголосый

Режиссер: Питер Коллинсон
В ролях: Онор Блэкман, Сьюзен Джордж, Иэн Бэннен, Джон Грегсон, Джордж Коул, Дэннис Ватерман, Тара Коллинсон, Морис Кауфман, Роджер Ллойд Пэк, Майкл Бреннан, Брук Уильямс

Описание: Молодая сиделка Аманда прибывает в старое поместье семьи Ллойдов, чтобы остаться вечером с их сыном, пока родители будут в гостях. Вскоре, после того как супружеская чета уезжает из дома, происходит череда пугающих событий, которые приводят Аманду на грань нервного срыва. Но настоящий ужас начинается тогда, когда биологический отец мальчика, сбежавший из психиатрической лечебницы, появляется возле поместья...



Качество: BDRip 720p
Формат: MKV
Видео: MPEG4 AVC, 6015 Kбит/с, 1196x720
Аудио 1: русский, AC3, 192 kbps, 2 ch, 48 kHz [закадровый двухголосый, DeadSno & den904]
Аудио 2: английский, AC3, 192 kbps, 2 ch, 48 kHz [оригинал]
Субтитры: английские
Главы/чаптеры
Общее
Уникальный идентификатор : 196591535791092296703344986171998969605 (0x93E6270E209030A8A84251B303079F05)
Полное имя : D:\Video\Сильный испуг.1971.BDRip 720p by msltel.mkv
Формат : Matroska
Версия формата : Version 4
Размер файла : 3,92 Гбайт
Продолжительность : 1 ч. 27 м.
Общий поток : 6401 Кбит/сек
Название фильма : Rip by msltel
Дата кодирования : UTC 2019-11-09 09:23:38
Программа кодирования : mkvmerge v8.2.0 ('World of Adventure') 64bit
Библиотека кодирования : libebml v1.3.1 + libmatroska v1.4.2

Видео
Идентификатор : 1
Формат : AVC
Формат/Информация : Advanced Video Codec
Профиль формата : High@L4.1
Настройки формата : CABAC / 9 Ref Frames
Параметр CABAC формата : Да
Параметр RefFrames формата : 9 кадров
Идентификатор кодека : V_MPEG4/ISO/AVC
Продолжительность : 1 ч. 27 м.
Битрейт : 6015 Кбит/сек
Ширина : 1196 пикселей
Высота : 720 пикселей
Соотношение сторон : 5:3
Режим частоты кадров : Постоянный
Частота кадров : 23,976 (24000/1001) кадра/сек
Цветовое пространство : YUV
Субдискретизация насыщенности : 4:2:0
Битовая глубина : 8 бит
Тип развёртки : Прогрессивная
Бит/(Пиксели*Кадры) : 0.291
Размер потока : 3,68 Гбайт (94%)
Библиотека кодирования : x264 core 157 r2935 545de2f
Настройки программы : cabac=1 / ref=9 / deblock=1:-2:-2 / analyse=0x3:0x113 / me=umh / subme=11 / psy=1 / psy_rd=1.00:0.15 / mixed_ref=1 / me_range=32 / chroma_me=1 / trellis=2 / 8x8dct=1 / cqm=0 / deadzone=21,11 / fast_pskip=0 / chroma_qp_offset=-3 / threads=6 / lookahead_threads=1 / sliced_threads=0 / nr=0 / decimate=1 / interlaced=0 / bluray_compat=0 / constrained_intra=0 / bframes=11 / b_pyramid=2 / b_adapt=2 / b_bias=0 / direct=1 / weightb=1 / open_gop=0 / weightp=2 / keyint=230 / keyint_min=23 / scenecut=40 / intra_refresh=0 / rc_lookahead=40 / rc=crf / mbtree=1 / crf=19.1 / qcomp=0.60 / qpmin=0 / qpmax=69 / qpstep=4 / vbv_maxrate=50000 / vbv_bufsize=62500 / crf_max=0.0 / nal_hrd=none / filler=0 / ip_ratio=1.40 / aq=1:1.00
Язык : English
Default : Да
Forced : Нет

Аудио #1
Идентификатор : 2
Формат : AC-3
Формат/Информация : Audio Coding 3
Коммерческое название : Dolby Digital
Идентификатор кодека : A_AC3
Продолжительность : 1 ч. 27 м.
Вид битрейта : Постоянный
Битрейт : 192 Кбит/сек
Каналы : 2 канала
ChannelLayout : L R
Частота : 48,0 КГц
Частота кадров : 31,250 кадров/сек (1536 SPF)
Метод сжатия : С потерями
Размер потока : 120 Мбайт (3%)
Заголовок : DeadSno & den904
Язык : Russian
ServiceKind/String : Complete Main
Default : Да
Forced : Нет

Аудио #2
Идентификатор : 3
Формат : AC-3
Формат/Информация : Audio Coding 3
Коммерческое название : Dolby Digital
Идентификатор кодека : A_AC3
Продолжительность : 1 ч. 27 м.
Вид битрейта : Постоянный
Битрейт : 192 Кбит/сек
Каналы : 2 канала
ChannelLayout : L R
Частота : 48,0 КГц
Частота кадров : 31,250 кадров/сек (1536 SPF)
Метод сжатия : С потерями
Размер потока : 120 Мбайт (3%)
Заголовок : original
Язык : English
ServiceKind/String : Complete Main
Default : Нет
Forced : Нет

Текст
Идентификатор : 4
Формат : UTF-8
Идентификатор кодека : S_TEXT/UTF8
Идентификатор кодека/Информация : UTF-8 Plain Text
Продолжительность : 1 ч. 26 м.
Битрейт : 44 бит/сек
ElementCount : 1220
Размер потока : 28,2 Кбайт (0%)
Заголовок : английские
Язык : English
Default : Нет
Forced : Нет

Меню
00:00:00.000 : en:Chapter 01
00:06:39.941 : en:Chapter 02
00:16:11.720 : en:Chapter 03
00:23:07.719 : en:Chapter 04
00:31:04.445 : en:Chapter 05
00:38:16.919 : en:Chapter 06
00:42:24.959 : en:Chapter 07
00:48:23.442 : en:Chapter 08
00:55:09.556 : en:Chapter 09
01:01:40.822 : en:Chapter 10
01:07:17.700 : en:Chapter 11
01:17:44.826 : en:Chapter 12



Скачать Сильный испуг через торрент https://d.radikal.ru/d30/1911/a7/2a691b6f325c.jpg Скачать, смотреть онлайн Сильный испуг бесплантно в хорошем качестве Описание: Молодая сиделка Аманда прибывает в старое поместье семьи Ллойдов, чтобы остаться вечером с их сыном, пока родители будут в ... 10 10 1
Торрент: Зарегистрирован [2019-11-09 09:57] · скачан: 5 раз
Статус: √ проверено
Размер: 3.92 GB
Как cкачать? Как скачать Сильный испуг через торрент | UTorrent

% Раздел Тема Автор DL S | L
Фильмы [HD 720p, 1080p] (Звук Cam, VO, DVO) [ 11.56 GB ] Сильный испуг / Fright | | 1080p msltel Скачать
1 | 0
Фильмы до 2000 г. [ 1.95 GB ] Сильный испуг / Fright | | BDRip (AVC msltel Скачать
1 | 0

28-11-2019 20:33  


Отключить вcю реклaмy на сайте, в т.ч. и в плеере онлайн просмотра!

    Дорогой пользователь! Огромная просьба, поблагодарите релизера, оцените раздачу и оставьте свои комментарий, если Вы скачали Сильный испуг через торрент бесплатно!!
    Комментировать посты могут только пользователи прошедшие не сложную регистрацию
    Показать сообщения:    


    Сильный испуг через торрент
    Скачать бесплатно Сильный испуг
    Сильный испуг скачать торрент
    Сильный испуг смотреть онлайн
    Cкачать фильм Сильный испуг бесплатно
    Сильный испуг скачать торрент в хорошем качестве
    Сильный испуг смотреть онлайн бесплатно в хорошем качестве
    Вы не можете начинать темы
    Вы не можете отвечать на сообщения
    Вы не можете редактировать свои сообщения
    Вы не можете удалять свои сообщения
    Вы не можете голосовать в опросах
    Вы не можете прикреплять файлы к сообщениям
    Вы можете скачивать файлы
    Сильный испуг / Fright [1971, триллер, BDRip 720p ] DVO смотреть онлайн, скачать торрент picoco.icu