Доктор Стрэндж

Лицензия

Добыча

Дубляж

Уэнсдэй

1 сезон

Тор

Дубляж

В эфире

Дубляж

Там, где раки поют

MVO

Властелин колец

1 сезон

Deluxe

pack

Рекомендуем

30

Пиратка

ВАЖНО

ВАЖНО

Ghostwire

Пиратка

jed

RePack

nioh2

RePack

RDR2

RePack

NEED FOR SPEED™ PAYBACK

RePack

скачать торрент

Кинопоиск HD

Острые козырьки 6 сезон

6 сезон

FAR CRY 6

RePack

скачать торрент

Лицензия

скачать торрент

MVO

1

1 сезон

скачать торрент

1 сезон

скачать торрент

Лицензия

  

Пусть идёт снег / Let It Snow (Люк Снеллин) [2019, мелодрама, комедия, WEB-DLRip-AVC] Дубляж [Невафильм] - OlLanDGroup

Пусть идёт снег через торрент piratbit.org

Раздают: 1 [ 192 KB/s ]
Размер: 1.46 GB | Добавлен: 3 года назад | Торрент скачан:208 раз
Смотреть онлайн | Скачать   

10-11-2019 06:13 Пусть идёт снег Скачать торрент  

Пусть идёт снег / Let It Snow Год выпуска: 2019
Производство: Пусть идёт снег через торрент piratbit.pw США
Жанр: мелодрама, комедия
Продолжительность: 01:32:00

Перевод: Профессиональный (дублированный) | Невафильм
Субтитры: Русские (forced + full), английские

Режиссер: Люк Снеллин / Luke Snellin

В ролях: Изабела Монер, Кирнан Шипка, Джоан Кьюсак, Одейя Раш, Джейкоб Баталон, Шамеик Мур, Митчелл Хоуп, Майлз Роббинс, Мэйсон Гудинг, Лив Хьюсон

Описание: Неожиданный снежный буран в канун Рождества застает жителей Грейстауна врасплох: поезда останавливаются, машины вязнут в снегу, а люди стараются переждать непогоду дома. И лишь храбрая девушка выбирается из застрявшего в снегу экспресса, чтобы посидеть в тишине маленькой закусочной, где выпекают вафли. Она и не догадывается, что ее поступок стал первым звеном в цепи событий, которые изменят многие жизни: одна девушка влюбится в очаровательного незнакомца, трое друзей выиграют гонку в «Вафельную», а судьба карликовой свиньи окажется в руках влюбленного баристы.

rating

Качество: WEB-DLRip-AVC
Формат: MKV

Видео: 1024x436 (2.35:1), 24 fps, x264 ~1784 kbps avg, 0.166 bit/pixel
Аудио: 48 kHz, AC3 Dolby Digital, 3/2 (L,C,R,l,r) + LFE ch, ~448 kbps
General
Unique ID : 154545827543222066910206349056606560102 (0x744471969F3D0163991823E88B7D5F66)
Complete name : D:OlLanDGroupLet.It.Snow.2019.NF.WEB-DLRip(AVC).1.45Gb.OlLanDGroup.mkv
Format : Matroska
Format version : Version 4
File size : 1.46 GiB
Duration : 1 h 33 min
Overall bit rate : 2 233 kb/s
Movie name : Let.It.Snow.2019.NF.WEB-DLRip(AVC).1.45Gb.OlLanDGroup#Skandar#
Encoded date : UTC 2019-11-10 05:27:45
Writing application : mkvmerge v31.0.0 ('Dolores In A Shoestand') 64-bit
Writing library : libebml v1.3.6 + libmatroska v1.4.9

Video
ID : 1
Format : AVC
Format/Info : Advanced Video Codec
Format profile : High@L4.1
Format settings : CABAC / 10 Ref Frames
Format settings, CABAC : Yes
Format settings, ReFrames : 10 frames
Codec ID : V_MPEG4/ISO/AVC
Duration : 1 h 33 min
Bit rate : 1 784 kb/s
Width : 1 024 pixels
Height : 436 pixels
Display aspect ratio : 2.35:1
Frame rate mode : Constant
Frame rate : 24.000 FPS
Color space : YUV
Chroma subsampling : 4:2:0
Bit depth : 8 bits
Scan type : Progressive
Bits/(Pixel*Frame) : 0.166
Stream size : 1.16 GiB (80%)
Title : Let.It.Snow.2019.NF.WEB-DLRip(AVC).1.45Gb.OlLanDGroup#Skandar#
Writing library : x264 core 146 r2538 121396c
Encoding settings : cabac=1 / ref=10 / deblock=1:-3:-3 / analyse=0x3:0x133 / me=umh / subme=11 / psy=1 / psy_rd=0.97:0.05 / mixed_ref=1 / me_range=48 / chroma_me=1 / trellis=2 / 8x8dct=1 / cqm=0 / deadzone=21,11 / fast_pskip=0 / chroma_qp_offset=-3 / threads=6 / lookahead_threads=1 / sliced_threads=0 / nr=0 / decimate=0 / interlaced=0 / bluray_compat=0 / constrained_intra=0 / bframes=11 / b_pyramid=2 / b_adapt=2 / b_bias=0 / direct=3 / weightb=1 / open_gop=0 / weightp=2 / keyint=240 / keyint_min=23 / scenecut=40 / intra_refresh=0 / rc_lookahead=40 / rc=2pass / mbtree=0 / bitrate=1784 / ratetol=1.0 / qcomp=0.60 / qpmin=0 / qpmax=69 / qpstep=4 / cplxblur=20.0 / qblur=0.5 / vbv_maxrate=50000 / vbv_bufsize=62500 / nal_hrd=none / filler=0 / ip_ratio=1.40 / pb_ratio=1.30 / aq=1:1.00
Language : Russian
Default : Yes
Forced : No

Audio
ID : 2
Format : AC-3
Format/Info : Audio Coding 3
Commercial name : Dolby Digital
Codec ID : A_AC3
Duration : 1 h 33 min
Bit rate mode : Constant
Bit rate : 448 kb/s
Channel(s) : 6 channels
Channel layout : L R C LFE Ls Rs
Sampling rate : 48.0 kHz
Frame rate : 31.250 FPS (1536 SPF)
Bit depth : 16 bits
Compression mode : Lossy
Stream size : 300 MiB (20%)
Title : Дубляж (Невафильм)
Language : Russian
Service kind : Complete Main
Default : Yes
Forced : No

Text #1
ID : 3
Format : UTF-8
Codec ID : S_TEXT/UTF8
Codec ID/Info : UTF-8 Plain Text
Duration : 1 h 32 min
Bit rate : 0 b/s
Count of elements : 11
Stream size : 568 Bytes (0%)
Title : Forced
Language : Russian
Default : Yes
Forced : Yes

Text #2
ID : 4
Format : UTF-8
Codec ID : S_TEXT/UTF8
Codec ID/Info : UTF-8 Plain Text
Duration : 1 h 32 min
Bit rate : 81 b/s
Count of elements : 1313
Stream size : 55.5 KiB (0%)
Title : Full
Language : Russian
Default : No
Forced : No

Text #3
ID : 5
Format : UTF-8
Codec ID : S_TEXT/UTF8
Codec ID/Info : UTF-8 Plain Text
Duration : 1 h 32 min
Bit rate : 73 b/s
Count of elements : 1643
Stream size : 49.6 KiB (0%)
Language : English
Default : No
Forced : No
***За исходник спасибо: Wilmots@EniaHD

Релиз от:



Скачать Пусть идёт снег через торрент http://c.radikal.ru/c05/1911/33/61e7f3a74b90.jpg Скачать, смотреть онлайн Пусть идёт снег бесплантно в хорошем качестве Описание: Неожиданный снежный буран в канун Рождества застает жителей Грейстауна врасплох: поезда останавливаются, машины вязнут в снегу, а ... 9.8 10 4
Info! Золотая раздача, скачанное не засчитывается.
Торрент: Зарегистрирован [2019-11-10 06:13] · скачан: 208 раз
Статус: √ проверено
Размер: 1.46 GB
Как cкачать? Как скачать Пусть идёт снег через торрент | UTorrent

% Раздел Тема Автор DL S | L
Фильмы 2019-2020 [DVDrip, WEB-DLRip, HDrip] (DUB, MVO) [ 746 MB ] Пусть идёт снег / Let It Snow | DUB | DLRip-AVC Skandar2019 Скачать
2 | 0

28-11-2019 20:33  


Отключить вcю реклaмy на сайте, в т.ч. и в плеере онлайн просмотра!

    Дорогой пользователь! Огромная просьба, поблагодарите релизера, оцените раздачу и оставьте свои комментарий, если Вы скачали Пусть идёт снег через торрент бесплатно!!
    Комментировать посты могут только пользователи прошедшие не сложную регистрацию
    Показать сообщения:    


    Пусть идёт снег через торрент
    Скачать бесплатно Пусть идёт снег
    Пусть идёт снег скачать торрент
    Пусть идёт снег смотреть онлайн
    Cкачать фильм Пусть идёт снег бесплатно
    Пусть идёт снег скачать торрент в хорошем качестве
    Пусть идёт снег смотреть онлайн бесплатно в хорошем качестве
    Вы не можете начинать темы
    Вы не можете отвечать на сообщения
    Вы не можете редактировать свои сообщения
    Вы не можете удалять свои сообщения
    Вы не можете голосовать в опросах
    Вы не можете прикреплять файлы к сообщениям
    Вы можете скачивать файлы
    Пусть идёт снег / Let It Snow [2019, мелодрама, комедия, WEB-DLRip-AVC] Дубляж [Невафильм] - OlLanDGroup смотреть онлайн, скачать торрент picoco.icu