новый адрес
Мега распродажа FORZA HORIZON 4 ULTIMATE+ВСЕ DLC+ОНЛАЙН всего за 499р. 349 руб. (супер цена). Внимание количество ограничено!!!

iTunes

1+1

iTunes

мы

iTunes

1

iTunes

Чернобыль

iTunes

Ральф против интернета

Лицензия

ПШазам

Лицензия

Оно 2

Лицензия

30
pack

ВАЖНО

!!Акция!!

Alien_RageХит недели

RePack

Resident Evil 21

ИГРА 18+

pack

RePack

Metro:Exodus

!!Акция!!

Alien_Rage

RePack

fifa19

RePack

Assassins Creed: Odyssey

RePack

NEED FOR SPEED™ PAYBACK

3 сезон

9 сезон

Бесстыжие 9 сезон

Все сериалы

все сериалы на PB.wtf

RePack

FAR CRY 5
Ребята, катастрофически не хватает 1900р. для оплаты серверов за Октябрь (всвязи с блокировками трафик упал в 3 раза), 1-2р., выручайте.
  

Один неверный ход / One False Move (Карл Франклин) [1992 г., триллер, драма, криминал, WEB-DL 720p] MVO piratbit.org

Один неверный ход через торрент piratbit.org

Раздают: 1 [ 0 KB/s ]
Размер: 3.22 GB | Добавлен: 9 д. назад | Торрент скачан:16 раз
Скачать  

10-11-2019 20:52 Один неверный ход Скачать торрент  

Один неверный ход / One False Move
Год выпуска: 1992

Страна: США

Жанр: Триллер, драма, криминал

Продолжительность: 01:45:34

Перевод: Профессиональный (многоголосый)

Субтитры: Английские

Режиссер: Карл Франклин

rating

В ролях: Билл Пэкстон, Синда Уильямс, Билли Боб Торнтон, Майкл Бич, Джим Метцлер, Эрл Биллингс, Натали Кэнердей, Роберт Гиннавен, Роджер Энтони Белл, Кевин Хантер, Мередит ’Джета’ Донован, Джимми Бриджес, Филлис Саттон, Деррик Уильямс, Джун Джонс, Лорен Тайлер, Джон Махон, Дж. Роберт Бэйли

Описание: Лайза Уокер, приехавшая в Лос-Анжделес из Арканзаса, нашла себе не лучшую компанию. Ее приятель Рэй Мэлколм вместе с напарником совершает жестокое убийство, вырезав в одном из домов целую семью. Прихватив награбленное, троица направляется в Хьюстон в надежде реализовать товар. По дороге они решают завернуть в Арканзас. Там на след преступников выходит полицейский Дэйл Диксон по прозвищу «Ураган»…
Качество: WEB-DL 720p
Формат: MKV
Видео: MPEG-4 AVC, 3901 Кбит/с, 1280x720
Аудио#1: Русский, AC-3, 2 ch, 192 Кбит/с
Аудио#2: Английский, AC-3, 2 ch, 192 Кбит/с
Видео
Идентификатор : 1
Формат : AVC
Формат/Информация : Advanced Video Codec
Профиль формата : High@L3.1
Настройки формата : 2 Ref Frames
Параметр CABAC формата : Нет
Параметр RefFrames формата : 2 кадра
Идентификатор кодека : V_MPEG4/ISO/AVC
Продолжительность : 1 ч. 45 м.
Битрейт : 3901 Кбит/сек
Ширина : 1280 пикселей
Высота : 720 пикселей
Соотношение сторон : 16:9
Режим частоты кадров : Постоянный
Частота кадров : 23,976 кадра/сек
Цветовое пространство : YUV
Субдискретизация насыщенности : 4:2:0
Битовая глубина : 8 бит
Тип развёртки : Прогрессивная
Бит/(Пиксели*Кадры) : 0.177
Размер потока : 2,88 Гбайт (89%)
Язык : English
Default : Нет
Forced : Нет
Цветовой диапазон : Limited
Основные цвета : BT.709
Характеристики трансфера : BT.709
Коэффициенты матрицы : BT.709

Аудио #1
Идентификатор : 2
Формат : AC-3
Формат/Информация : Audio Coding 3
Коммерческое название : Dolby Digital
Идентификатор кодека : A_AC3
Продолжительность : 1 ч. 45 м.
Вид битрейта : Постоянный
Битрейт : 192 Кбит/сек
Каналы : 2 канала
ChannelLayout : L R
Частота : 48,0 КГц
Частота кадров : 31,250 кадров/сек (1536 SPF)
Битовая глубина : 16 бит
Метод сжатия : С потерями
Размер потока : 145 Мбайт (4%)
Заголовок : MVO
Язык : Russian
ServiceKind/String : Complete Main
Default : Нет
Forced : Нет

Аудио #2
Идентификатор : 3
Формат : AC-3
Формат/Информация : Audio Coding 3
Коммерческое название : Dolby Digital
Идентификатор кодека : A_AC3
Продолжительность : 1 ч. 45 м.
Вид битрейта : Постоянный
Битрейт : 192 Кбит/сек
Каналы : 2 канала
ChannelLayout : L R
Частота : 48,0 КГц
Частота кадров : 31,250 кадров/сек (1536 SPF)
Битовая глубина : 16 бит
Метод сжатия : С потерями
Размер потока : 145 Мбайт (4%)
Заголовок : Org
Язык : English
ServiceKind/String : Complete Main
Default : Нет
Forced : Нет

Текст
Идентификатор : 4
Формат : UTF-8
Идентификатор кодека : S_TEXT/UTF8
Идентификатор кодека/Информация : UTF-8 Plain Text
Язык : English
Default : Нет
Forced : Нет

скриншот   скриншот   скриншот   скриншот   скриншот  

piratbit.org



Скачать Один неверный ход через торрент http://pic1.kartinco.top/images/12/dh1kp.jpg Скачать фильм Один неверный ход через торрент бесплантно в хорошем качестве Описание: Лайза Уокер, приехавшая в Лос-Анжделес из Арканзаса, нашла себе не лучшую компанию. Ее приятель Рэй Мэлколм вместе с напарником ... 10 10 3
Торрент: Зарегистрирован [2019-11-10 20:52] · скачан: 16 раз
Статус: √ проверено
Размер: 3.22 GB
Как cкачать? Как скачать Один неверный ход через торрент | qTorrent


>> Регистрируемся здесь <<






Отзывы и комментарии о схеме читаем и пишем здесь: ---> Отзывы и комментарии о схеме

Новые благодарочки в телеграм довольных пользователей:
скриншот   скриншот   скриншот   скриншот   скриншот
    Дорогой пользователь! Огромная просьба, поблагодарите релизера, оцените раздачу и оставьте свои комментарий, если Вы скачали Один неверный ход через торрент бесплатно! Внесите свою лепту в развитие PiratBit!
    Комментировать посты могут только пользователи прошедшие не сложную регистрацию
    Показать сообщения:    

    Один неверный ход через торрент
    Скачать бесплатно Один неверный ход
    Один неверный ход скачать торрент
    Один неверный ход смотреть онлайн
    Cкачать фильм Один неверный ход бесплатно
    Один неверный ход скачать торрент в хорошем качестве
    Один неверный ход смотреть онлайн бесплатно в хорошем качестве


    Вы не можете начинать темы
    Вы не можете отвечать на сообщения
    Вы не можете редактировать свои сообщения
    Вы не можете удалять свои сообщения
    Вы не можете голосовать в опросах
    Вы не можете прикреплять файлы к сообщениям
    Вы можете скачивать файлы