Лицензия

MVO

1

1 сезон

Лицензия

Лицензия

13

MVO

1 сезон

Deluxe Edition

pack

Рекомендуем

30

Repack

ВАЖНО

ВАЖНО

Ghostwire

RePack

jed

RePack

fifa19

RePack

RDR2

RePack

NEED FOR SPEED™ PAYBACK

RePack

Кинопоиск HD

 Острые козырьки 6 сезон

6 сезон

FAR CRY 6

RePack

Лицензия

MVO

1

1 сезон

1 сезон

Лицензия

  

Валера (Борис Рыцарев) [1964, СССР, драма, SATRip от AVP Studio]

Валера через торрент piratbit.org

Размер: 745 MB | Добавлен: 2 года 10 мес. назад | Торрент скачан:24 раза
Смотреть онлайн Валера | Скачать   

12-11-2019 09:57 Валера Скачать торрент  

Валера
Страна: СССР
Производство: Центральная студия детских и юношеских фильмов им. М. Горького

Жанр: драма
Год выпуска: 1964
Продолжительность: 01:03:41

Перевод: Не требуется
Cубтитры: нет
Оригинальная аудиодорожка: русский

Режиссер: Борис Рыцарев

В ролях:
Володя Зеленин, Любовь Соколова, Алексей Миронов, Николай Лебедев (II), Иван Кузнецов, Пётр Любешкин, Лена Гурина...
Об актёрах подробней

Описание:
Двенадцатилетний Валера живет с родителями в небольшом поселке. В семье мальчика все подчинено одному — накоплению богатства. Этим же заполнена и жизнь Валеры. Он не играет, не бегает, как все дети, а целые дни работает. Даже рыбной ловлей мальчик занимается не ради удовольствия, а для того, чтобы побольше заработать. Но однажды на рыбалке Валера встретил незнакомца, который попросил подыскать ему временное жилище. Валера привел Аркадия Сергеевича к себе — и с этих пор у него появился настоящий друг и защитник. И под влиянием этого человека Валера понял, что нельзя жить так, как живет его семья.

Исходник: DVB
Качество видео: SATRip
Формат видео: AVI

Видео: 704x528 (4:3), 25,000 кадров/сек, XviD ~ 1435 kbps avg, 0.154 bit/pixel
Аудио: 48 kHz, Dolby Digital AC3 2.0, 192 kbps

Раздача от:
Общее
Полное имя : Valera.1964.SATRip_[New-team]_by_AVP_Studio.avi
Формат : AVI
Формат/Информация : Audio Video Interleave
Размер файла : 745 Мбайт
Продолжительность : 1 ч. 3 м.
Общий поток : 1636 Кбит/сек
Программа кодирования : VirtualDubMod 1.5.10.3 | www.virtualdub-fr.org || (build 2550/release)
Библиотека кодирования : VirtualDubMod build 2550/release

Видео
Идентификатор : 0
Формат : MPEG-4 Visual
Профиль формата : Advanced Simple@L5
Настройки формата : BVOP1 / Custom Matrix
Параметр BVOP формата : 1
Параметр QPel формата : Нет
Параметр GMC формата : Без точки перехода
Параметр матрицы формата : Выборочная
Идентификатор кодека : XVID
Идентификатор кодека/Подсказка : XviD
Продолжительность : 1 ч. 3 м.
Битрейт : 1435 Кбит/сек
Ширина : 704 пикселя
Высота : 528 пикселей
Соотношение сторон : 4:3
Частота кадров : 25,000 кадров/сек
Цветовое пространство : YUV
Субдискретизация насыщенности : 4:2:0
Битовая глубина : 8 бит
Тип развёртки : Прогрессивная
Метод сжатия : С потерями
Бит/(Пиксели*Кадры) : 0.154
Размер потока : 653 Мбайт (88%)
Библиотека кодирования : XviD 73

Аудио
Идентификатор : 1
Формат : AC-3
Формат/Информация : Audio Coding 3
Коммерческое название : Dolby Digital
Идентификатор кодека : 2000
Продолжительность : 1 ч. 3 м.
Вид битрейта : Постоянный
Битрейт : 192 Кбит/сек
Каналы : 2 канала
ChannelLayout : L R
Частота : 48,0 КГц
Частота кадров : 31,250 кадров/сек (1536 SPF)
Битовая глубина : 16 бит
Метод сжатия : С потерями
Размер потока : 87,5 Мбайт (12%)
Выравнивание : Разделение по промежуткам
Продолжительность промежутка : 40 мс. (1,00 видеокадр)
Время предзагрузки промежутка : 500 мс



Скачать Валера через торрент http://c.radikal.ru/c14/1911/ae/1109ef8ea2cb.png Скачать, смотреть онлайн Валера бесплантно в хорошем качестве Описание:Двенадцатилетний Валера живет с родителями в небольшом поселке. В семье мальчика все подчинено одному — накоплению богатства. Этим ... 5 10 1
Торрент: Зарегистрирован [2019-11-12 09:57] · скачан: 24 раз
Статус: √ проверено
Размер: 745 MB
Как cкачать? Как скачать Валера через торрент | UTorrent

% Раздел Тема Автор DL S | L
Кино СССР [ 745 MB ] Валера | | SATRip-AVC от AVP Studio AVP Studio Скачать
1 | 0

28-11-2019 20:33  

Отключить вcю реклaмy на сайте

    Дорогой пользователь! Огромная просьба, поблагодарите релизера, оцените раздачу и оставьте свои комментарий, если Вы скачали Валера через торрент бесплатно!!
    Комментировать посты могут только пользователи прошедшие не сложную регистрацию
    Показать сообщения:    


    Валера через торрент
    Скачать бесплатно Валера
    Валера скачать торрент
    Валера смотреть онлайн
    Cкачать фильм Валера бесплатно
    Валера скачать торрент в хорошем качестве
    Валера смотреть онлайн бесплатно в хорошем качестве
    Вы не можете начинать темы
    Вы не можете отвечать на сообщения
    Вы не можете редактировать свои сообщения
    Вы не можете удалять свои сообщения
    Вы не можете голосовать в опросах
    Вы не можете прикреплять файлы к сообщениям
    Вы можете скачивать файлы