1 сезон

3 сезон

iTunes

1

iTunes

DUB Netflix

iTunes

13

1 сезон

RePack

30

Deluxe

pack

Легкие деньги

ВАЖНО

ИГРА 18+

pack

RePack

MK11

RePack

jed

RePack

fifa19

RePack

RDR2

RePack

NEED FOR SPEED™ PAYBACK

4 сезон

9 сезон

Бесстыжие 9 сезон

Все сериалы

все сериалы на PB.wtf

RePack

FAR CRY 5

Anonymous, добрый день, мы не успеваем до 1 числа собрать деньги на оплату серверов, помогите нам пожалуйста в это трудное время. В качестве благодарности мы отключим Вам всю рекламу на сайте (укажите свой ник в строку Ваше имя)!

×
  
Magnet ссылка

Эпидемия / Сезон: 1 / Серии: 1-8 из 8 (Павел Костомаров) [2019, Фильм-катастрофа, фэнтези, WEB-DLRip] piratbit.org

Эпидемия через торрент piratbit.org

Раздают: 4 [ 77 KB/s ]
Размер: 4.69 GB | Добавлен: 1 год 5 мес. назад | Торрент скачан:824 раза
Скачать  

13-11-2019 21:28 Эпидемия Скачать торрент  

Эпидемия
Год выпуска: 2019
Страна: Россия
Студия: ТНТ-PREMIER Studios
Жанр: Фильм-катастрофа, фэнтези
Продолжительность: ~ 00:55:00
Перевод: Не требуется
Субтитры: отсутствуют

Режиссер: Павел Костомаров

rating

В ролях: Кирилл Кяро, Виктория Исакова, Александр Робак, Марьяна Спивак, Савелий Кудряшов, Наталья Земцова, Юрий Кузнецов, Анна Михалкова, Александр Яценко, Игорь Савочкин, Павел Ворожцов, Артём Сучков, Константин Балакирев

Описание: Жёсткая семейная драма на фоне глобальной катастрофы, «Эпидемия» основана на романе Яны Вагнер «Вонгозеро», переведённом на 11 языков. В основе сюжета - неизвестный смертельный вирус, который быстро разрастается до страшной эпидемии. Сергей в компании своей новой возлюбленной и её сына-аутиста, а также бывшей жены, их сына и ещё нескольких примкнувших к ним попутчиков пытается спастись за границами карантина. Где-то далеко, на необитаемом острове в Карелии, стоит охотничий домик, где они смогут начать все с нуля. Но дорога в новую жизнь будет непростой, ведь бегут герои не только от глобальной катастрофы, но и личной семейной драмы.

Качество: WEB-DLRip
Формат: AVI

Видео: 720x304 (2.37:1), 25 fps, XviD ~1300 kbps avg, 0.238 bit/pixel
Аудио: AC3 Dolby Digital, 48.0 kHz, 2/0 (L,R) ch, 192 kbps
скриншот  скриншот  скриншот  скриншот  скриншот  

General
Complete name : D:\Epidemia.2019.WEB-DLRip.25Kuzmich\Epidemia.s01.e01.WEB-DLRip.25Kuzmich.avi
Format : AVI
Format/Info : Audio Video Interleave
File size : 601 MiB
Duration : 55 min 44 s
Overall bit rate : 1 507 kb/s
Writing application : VirtualDubMod 1.5.10.3 | www.virtualdub-fr.org || (build 2550/release)
Writing library : VirtualDubMod build 2550/release

Video
ID : 0
Format : MPEG-4 Visual
Format profile : Advanced Simple@L5
Format settings : BVOP1
Format settings, BVOP : 1
Format settings, QPel : No
Format settings, GMC : No warppoints
Format settings, Matrix : Default (MPEG)
Codec ID : XVID
Codec ID/Hint : XviD
Duration : 55 min 44 s
Bit rate : 1 305 kb/s
Width : 720 pixels
Height : 304 pixels
Display aspect ratio : 2.35:1
Frame rate : 25.000 FPS
Color space : YUV
Chroma subsampling : 4:2:0
Bit depth : 8 bits
Scan type : Progressive
Compression mode : Lossy
Bits/(Pixel*Frame) : 0.238
Stream size : 520 MiB (87%)
Writing library : XviD 73

Audio
ID : 1
Format : AC-3
Format/Info : Audio Coding 3
Codec ID : 2000
Duration : 55 min 44 s
Bit rate mode : Constant
Bit rate : 192 kb/s
Channel(s) : 2 channels
Channel positions : Front: L R
Sampling rate : 48.0 kHz
Frame rate : 31.250 FPS (1536 SPF)
Bit depth : 16 bits
Compression mode : Lossy
Stream size : 76.5 MiB (13%)
Alignment : Split accross interleaves
Interleave, duration : 40 ms (1.00 video frame)
Interleave, preload duratio : 500 ms
Service kind : Complete Main

Внимание! Раздача ведётся путём добавления новых серий; при каждом добавлении создfётся новый торрент. Чтобы начать докачку новой серии, пользователям необходимо сделать следующее: (1) остановить скачивание, (2) удалить старый торрент у себя из клиента (старые серии удалять не надо), (3) скачать новый торрент и запустить его у себя в клиенте вместо старого, при этом указать клиенту путь в старую папку куда и должно происходить скачивание новых серий.

Ваш клиент при этом должен произвести хеширование (проверку) старой папки (если не производит сам - помогите ему сделать это), и будет докачивать только те серии которых у вас ещё нет. Старые серии при этом не удаляются, а продолжают раздаваться!

Eсли вы уже удалили старые серии, то предотвратить повторную закачку старых серий можно, отжав галочку в соответсвующих местах при запуске нового торрента.
piratbit.org



Скачать Эпидемия через торрент https://img15.lostpic.net/2019/11/14/750810534e642093af6ab05a06ef6ed0.jpg Скачать фильм Эпидемия через торрент бесплантно в хорошем качестве Описание: Жёсткая семейная драма на фоне глобальной катастрофы, «Эпидемия» основана на романе Яны Вагнер «Вонгозеро», переведённом на 11 ... 9.6 10 24
Info! Золотая раздача, скачанное не засчитывается.
Торрент: Зарегистрирован [2020-01-03 01:15] · скачан: 824 раз
Статус: √ проверено
Размер: 4.69 GB
Как cкачать? Как скачать Эпидемия через торрент | UTorrent

% Раздел Тема Автор DL S | L
TNT serials [ 14.33 GB ] Эпидемия / Сезон: 1 / Серии: 1-8 из 8 [2019 Фильм-катастрофа WEB-DL 1080p] bober100 Скачать
4 | 0
TNT serials [ 6.33 GB ] Эпидемия / Сезон: 1 / Серии: 1-8 из 8 [2019 Фильм-катастрофа WEB-DLRip-AVC] bober100 Скачать
1 | 0
TNT serials [ 10.58 GB ] Эпидемия / Сезон: 1 / Серии: 1-8 из 8 [2019 Фильм-катастрофа WEB-DL 720p] bober100 Скачать
2 | 0

28-11-2019 20:33  

Отключить всю рекламу на сайте

08-01-2020 20:52 Эпидемия Скачать торрент  

bober100, сериал афигительный.реально понравился.

вот только скажи одно пожалуйста-откуда в Карелии взялся китайский спецназ? piratbit.org



    Дорогой пользователь! Огромная просьба, поблагодарите релизера, оцените раздачу и оставьте свои комментарий, если Вы скачали Эпидемия через торрент бесплатно! Внесите свою лепту в развитие PiratBit!
    Комментировать посты могут только пользователи прошедшие не сложную регистрацию
    Показать сообщения:    

    Эпидемия через торрент
    Скачать бесплатно Эпидемия
    Эпидемия скачать торрент
    Эпидемия смотреть онлайн
    Cкачать фильм Эпидемия бесплатно
    Эпидемия скачать торрент в хорошем качестве
    Эпидемия смотреть онлайн бесплатно в хорошем качестве


    Вы не можете начинать темы
    Вы не можете отвечать на сообщения
    Вы не можете редактировать свои сообщения
    Вы не можете удалять свои сообщения
    Вы не можете голосовать в опросах
    Вы не можете прикреплять файлы к сообщениям
    Вы можете скачивать файлы