Лицензия

MVO

1

1 сезон

Лицензия

Лицензия

13

MVO

1 сезон

Deluxe Edition

pack

Рекомендуем

30

Repack

ВАЖНО

ВАЖНО

Ghostwire

RePack

jed

RePack

fifa19

RePack

RDR2

RePack

NEED FOR SPEED™ PAYBACK

RePack

Кинопоиск HD

 Острые козырьки 6 сезон

6 сезон

FAR CRY 6

RePack

Лицензия

MVO

1

1 сезон

1 сезон

Лицензия

  

Весенние хлопоты (Ян Фрид) [1964, СССР, комедия, SATRip от AVP Studio]

Весенние хлопоты через торрент piratbit.org

Размер: 1.09 GB | Добавлен: 2 года 10 мес. назад | Торрент скачан:58 раз
Смотреть онлайн Весенние хлопоты | Скачать   

15-11-2019 08:41 Весенние хлопоты Скачать торрент  

Весенние хлопоты
Страна: СССР
Производство: Ленфильм

Жанр: драма
Год выпуска: 1964
Продолжительность: 01:21:53

Перевод: Не требуется
Cубтитры: нет
Оригинальная аудиодорожка: русский

Режиссер: Ян Фрид

В ролях:
Тамара Королюк, Владимир Трещалов, Николай Крючков, Александр Борисов, Георгий Вицин, Станислав Соколов, Александр Леньков, Светлана Дик, Гелий Сысоев, Георгий Светлани, Анна Лисянская...
Об актёрах подробней

Описание:
Юная Женя, специалист-садовод, получает направление на завод. Она полна решимости превратить в цветущий сад всю территорию предприятия, свободную от производства. Заводчане с сочувствием смотрят на молодую энтузиастку. И только влюбленный в Женю шофер Сергей помогает как может осуществлению ее мечты…

Исходник: DVB
Качество видео: SATRip
Формат видео: AVI

Видео: 704x528 (4:3), 25,000 кадров/сек, XviD ~ 1701 kbps avg, 0.183 bit/pixel
Аудио: 48 kHz, Dolby Digital AC3 2.0, 192 kbps

Раздача от:
Общее
Полное имя : Vesennie.hlopoty.1964.SATRip_[New-team]_by_AVP_Studio.avi
Формат : AVI
Формат/Информация : Audio Video Interleave
Размер файла : 1,09 Гбайт
Продолжительность : 1 ч. 21 м.
Общий поток : 1903 Кбит/сек
Программа кодирования : VirtualDubMod 1.5.10.3 | www.virtualdub-fr.org || (build 2550/release)
Библиотека кодирования : VirtualDubMod build 2550/release

Видео
Идентификатор : 0
Формат : MPEG-4 Visual
Профиль формата : Advanced Simple@L5
Настройки формата : BVOP1 / Custom Matrix
Параметр BVOP формата : 1
Параметр QPel формата : Нет
Параметр GMC формата : Без точки перехода
Параметр матрицы формата : Выборочная
Идентификатор кодека : XVID
Идентификатор кодека/Подсказка : XviD
Продолжительность : 1 ч. 21 м.
Битрейт : 1701 Кбит/сек
Ширина : 704 пикселя
Высота : 528 пикселей
Соотношение сторон : 4:3
Частота кадров : 25,000 кадров/сек
Цветовое пространство : YUV
Субдискретизация насыщенности : 4:2:0
Битовая глубина : 8 бит
Тип развёртки : Прогрессивная
Метод сжатия : С потерями
Бит/(Пиксели*Кадры) : 0.183
Размер потока : 996 Мбайт (89%)
Библиотека кодирования : XviD 73

Аудио
Идентификатор : 1
Формат : AC-3
Формат/Информация : Audio Coding 3
Коммерческое название : Dolby Digital
Идентификатор кодека : 2000
Продолжительность : 1 ч. 21 м.
Вид битрейта : Постоянный
Битрейт : 192 Кбит/сек
Каналы : 2 канала
ChannelLayout : L R
Частота : 48,0 КГц
Частота кадров : 31,250 кадров/сек (1536 SPF)
Битовая глубина : 16 бит
Метод сжатия : С потерями
Размер потока : 112 Мбайт (10%)
Выравнивание : Разделение по промежуткам
Продолжительность промежутка : 40 мс. (1,00 видеокадр)
Время предзагрузки промежутка : 500 мс



Скачать Весенние хлопоты через торрент http://b.radikal.ru/b30/1911/1b/563a44f2e924.png Скачать, смотреть онлайн Весенние хлопоты бесплантно в хорошем качестве Описание:Юная Женя, специалист-садовод, получает направление на завод. Она полна решимости превратить в цветущий сад всю территорию ... 10 10 1
Info! Золотая раздача, скачанное не засчитывается.
Торрент: Зарегистрирован [2019-11-15 08:41] · скачан: 58 раз
Статус: √ проверено
Размер: 1.09 GB
Как cкачать? Как скачать Весенние хлопоты через торрент | UTorrent

% Раздел Тема Автор DL S | L
Кино СССР [ 1.09 GB ] Весенние хлопоты | | SATRip-AVC от AVP Studio AVP Studio Скачать
1 | 0

28-11-2019 20:33  

Отключить вcю реклaмy на сайте

    Дорогой пользователь! Огромная просьба, поблагодарите релизера, оцените раздачу и оставьте свои комментарий, если Вы скачали Весенние хлопоты через торрент бесплатно!!
    Комментировать посты могут только пользователи прошедшие не сложную регистрацию
    Показать сообщения:    


    Весенние хлопоты через торрент
    Скачать бесплатно Весенние хлопоты
    Весенние хлопоты скачать торрент
    Весенние хлопоты смотреть онлайн
    Cкачать фильм Весенние хлопоты бесплатно
    Весенние хлопоты скачать торрент в хорошем качестве
    Весенние хлопоты смотреть онлайн бесплатно в хорошем качестве
    Вы не можете начинать темы
    Вы не можете отвечать на сообщения
    Вы не можете редактировать свои сообщения
    Вы не можете удалять свои сообщения
    Вы не можете голосовать в опросах
    Вы не можете прикреплять файлы к сообщениям
    Вы можете скачивать файлы