Достать ножи: Стеклянная луковица

MVO

Добыча

Дубляж

Уэнсдэй

1 сезон

Тор

Дубляж

13 клиническая

1 сезон

Жестокая ночь

MVO

Одни из нас

1 сезон

Deluxe

pack

Рекомендуем

30

Пиратка

ВАЖНО

ВАЖНО

Ghostwire

Пиратка

jed

RePack

nioh2

RePack

RDR2

RePack

NEED FOR SPEED™ PAYBACK

RePack

скачать торрент

Кинопоиск HD

Острые козырьки 6 сезон

6 сезон

FAR CRY 6

RePack

скачать торрент

Лицензия

скачать торрент

MVO

1

1 сезон

скачать торрент

1 сезон

скачать торрент

Лицензия

  

Падение ангела / Angel Has Fallen (Рик Роман Во) [2019, боевик, UHD BDRemux 2160p] Дубляж [Лицензия]

Падение ангела через торрент piratbit.org

Размер: 63.26 GB | Добавлен: 2 года 8 мес. назад | Торрент скачан:8 раз
Смотреть онлайн | Скачать | Поддержите нас   

15-11-2019 19:18 Падение ангела Скачать торрент  

Падение ангела | Angel Has Fallen
Год выпуска: 2019
Страна: США
Студия: Campbell Grobman Films, Eclectic Pictures, G-BASE
Жанр: боевик
Продолжительность: 02:01:03
Перевод: Дублированный | Лицензия
Субтитры: Русские (Full [Enigma]), английские

Режиссер: Рик Роман Во

rating

В ролях: Джерард Батлер, Морган Фриман, Пайпер Перабо, Джада Пинкетт Смит, Ник Нолти, Лэнс Реддик, Дэнни Хьюстон, Тим Блейк Нельсон, Майкл Лэндис, Крис Браунинг

Описание: Третья часть антитеррористической экшен-франшизы про высококлассного агента секретной службы США Майка Бэннинга (Джерард Батлер), который спасает от смертельного заговора первых лиц мировой политики. На этот раз целью террористов становится сам Бэннинг. Его подставляют и обвиняют в покушении на президента страны (Морган Фриман) — и теперь его разыскивают все спецслужбы. Чтобы очистить свое доброе имя, Бэннингу нужно самостоятельно раскрыть заговор.

Качество: UHD BDRemux 2160p
Формат: MKV

Видео: 3840x2160 at 23.976 fps, MPEG-H HEVC HDR Video, 66800 kbps avg
Аудио #01: 48 kHz, DTS-HD MA, 5.1, 3804 Kbps | Дублированный | RUS |
Аудио #02: 48 kHz, AC3, 5.1, 640 Kbps | Дублированный | RUS |
Аудио #03: 48 kHz, TrueHD, 7.1, 3046 Kbps | Оригинал | ENG |
Аудио #04: 48 kHz, AC3, 5.1, 448 Kbps | Оригинал | ENG |
скриншот  скриншот  скриншот  скриншот  скриншот  

General
Unique ID : 332275844749420006290630599803088563330 (0xF9F9FFFAC0EFF71CFFA03E2CCD8E6C82)
Complete name : D:Video111Angel.Has.Fallen.2019.BDREMUX.2160p.HDR.seleZen.mkv
Format : Matroska
Format version : Version 4
File size : 59.8 GiB
Duration : 2 h 1 min
Overall bit rate mode : Variable
Overall bit rate : 70.8 Mb/s
Movie name : Angel Has Fallen 4K from селезень
Encoded date : UTC 2019-11-15 18:17:29
Writing application : mkvmerge v40.0.0 ('Old Town Road + Pony') 64-bit
Writing library : libebml v1.3.9 + libmatroska v1.5.2

Video
ID : 1
Format : HEVC
Format/Info : High Efficiency Video Coding
Format profile : Main 10@L5.1@High
HDR format : SMPTE ST 2086, HDR10 compatible
Codec ID : V_MPEGH/ISO/HEVC
Duration : 2 h 1 min
Bit rate : 66.8 Mb/s
Width : 3 840 pixels
Height : 2 160 pixels
Display aspect ratio : 16:9
Frame rate mode : Constant
Frame rate : 23.976 (24000/1001) FPS
Color space : YUV
Chroma subsampling : 4:2:0 (Type 2)
Bit depth : 10 bits
Bits/(Pixel*Frame) : 0.336
Stream size : 56.5 GiB (94%)
Language : English
Default : Yes
Forced : No
Color range : Limited
Color primaries : BT.2020
Transfer characteristics : PQ
Matrix coefficients : BT.2020 non-constant
Mastering display color pri : Display P3
Mastering display luminance : min: 0.0010 cd/m2, max: 1000 cd/m2
Maximum Content Light Level : 1000 cd/m2
Maximum Frame-Average Light : 634 cd/m2

Audio #1
ID : 2
Format : AC-3
Format/Info : Audio Coding 3
Commercial name : Dolby Digital
Codec ID : A_AC3
Duration : 2 h 1 min
Bit rate mode : Constant
Bit rate : 384 kb/s
Channel(s) : 6 channels
Channel layout : L R C LFE Ls Rs
Sampling rate : 48.0 kHz
Frame rate : 31.250 FPS (1536 SPF)
Bit depth : 16 bits
Compression mode : Lossy
Stream size : 332 MiB (1%)
Title : iTunes
Language : Russian
Service kind : Complete Main
Default : Yes
Forced : Yes

Audio #2
ID : 3
Format : MLP FBA 16-ch
Format/Info : Meridian Lossless Packing FBA with 16-channel presentation
Commercial name : Dolby TrueHD with Dolby Atmos
Codec ID : A_TRUEHD
Duration : 2 h 1 min
Bit rate mode : Variable
Bit rate : 3 046 kb/s
Maximum bit rate : 5 010 kb/s
Channel(s) : 8 channels
Channel layout : L R C LFE Ls Rs Lb Rb
Sampling rate : 48.0 kHz
Frame rate : 1 200.000 FPS (40 SPF)
Compression mode : Lossless
Stream size : 2.58 GiB (4%)
Title : Original
Language : English
Default : No
Forced : No
Number of dynamic objects : 11
Bed channel count : 1 channel
Bed channel configuration : LFE

Audio #3
ID : 4
Format : AC-3
Format/Info : Audio Coding 3
Commercial name : Dolby Digital
Codec ID : A_AC3
Duration : 2 h 1 min
Bit rate mode : Constant
Bit rate : 448 kb/s
Channel(s) : 6 channels
Channel layout : L R C LFE Ls Rs
Sampling rate : 48.0 kHz
Frame rate : 31.250 FPS (1536 SPF)
Bit depth : 16 bits
Compression mode : Lossy
Stream size : 388 MiB (1%)
Language : English
Service kind : Complete Main
Default : No
Forced : No

Text
ID : 5
Format : UTF-8
Codec ID : S_TEXT/UTF8
Codec ID/Info : UTF-8 Plain Text
Duration : 1 h 51 min
Bit rate : 58 b/s
Count of elements : 1452
Stream size : 47.3 KiB (0%)
Title : Full
Language : English
Default : No
Forced : No

Menu
00:00:00.000 : en:Chapter 01
00:06:48.950 : en:Chapter 02
00:15:08.157 : en:Chapter 03
00:23:13.809 : en:Chapter 04
00:28:35.714 : en:Chapter 05
00:39:39.627 : en:Chapter 06
00:45:33.564 : en:Chapter 07
00:50:56.053 : en:Chapter 08
00:59:23.393 : en:Chapter 09
01:06:50.882 : en:Chapter 10
01:16:25.873 : en:Chapter 11
01:24:11.046 : en:Chapter 12
01:30:14.409 : en:Chapter 13
01:37:42.065 : en:Chapter 14
01:44:54.538 : en:Chapter 15
01:51:08.120 : en:Chapter 16




Скачать Падение ангела через торрент https://img15.lostpic.net/2019/11/15/12a05006dd16781feb6d1ed67a110622.jpg Скачать, смотреть онлайн Падение ангела бесплантно в хорошем качестве Описание: Третья часть антитеррористической экшен-франшизы про высококлассного агента секретной службы США Майка Бэннинга (Джерард Батлер), ... 9.6 10 5
Торрент: Зарегистрирован [2020-05-20 01:08] · скачан: 8 раз
Статус: √ проверено
Размер: 63.26 GB
Как cкачать? Как скачать Падение ангела через торрент | UTorrent

% Раздел Тема Автор DL S | L
Фильмы с авторской озвучкой [ 2.2 GB ] Падение ангела / Angel Has Fallen | AVO | BDRip-AVC killermax2013 Скачать
1 | 0
Ultra HD (UHD: 2K, 4K, 8K) [ 63.67 GB ] Падение ангела / Angel Has Fallen | Лицензия | 2160p, (Dolby Vision TV bober100 Скачать
1 | 0
Фильмы с авторской озвучкой [ 2.15 GB ] Падение ангела / Angel Has Fallen | AVO | BDRip-AVC Mr. Grab Скачать
1 | 0
Фильмы (Blu-ray, BD-Remux, HDDVD) [ 33.44 GB ] Падение ангела / Angel Has Fallen | Лицензия | BD Remux 1080p bober100 Скачать
1 | 0
Ultra HD (UHD: 2K, 4K, 8K) [ 74.72 GB ] Падение ангела / Angel Has Fallen | Лицензия | 2160p, (Dolby Vision bober100 Скачать
1 | 0
Фильмы [HD 720p, 1080p] (Хороший звук DUB, MVO) [ 2.07 GB ] Падение ангела / Angel Has Fallen | iTunes | 1080p, HEVC (10bit Мичман37 Скачать
1 | 0
Фильмы [HD 720p, 1080p] (Хороший звук DUB, MVO) [ 14.68 GB ] Падение ангела / Angel Has Fallen | Лицензия | 1080p bober100 Скачать
1 | 0



Последний раз редактировалось: bober100 (2020-05-20 01:08), всего редактировалось 1 раз

28-11-2019 20:33  


Отключить вcю реклaмy на сайте, в т.ч. и в плеере онлайн просмотра!

16-11-2019 13:50 Падение ангела Скачать торрент  

"Очередное падение Джерарда Батлера" - правильнее назвать... Не?!



    Дорогой пользователь! Огромная просьба, поблагодарите релизера, оцените раздачу и оставьте свои комментарий, если Вы скачали Падение ангела через торрент бесплатно!!
    Комментировать посты могут только пользователи прошедшие не сложную регистрацию
    Показать сообщения:    


    Падение ангела через торрент
    Скачать бесплатно Падение ангела
    Падение ангела скачать торрент
    Падение ангела смотреть онлайн
    Cкачать фильм Падение ангела бесплатно
    Падение ангела скачать торрент в хорошем качестве
    Падение ангела смотреть онлайн бесплатно в хорошем качестве
    Вы не можете начинать темы
    Вы не можете отвечать на сообщения
    Вы не можете редактировать свои сообщения
    Вы не можете удалять свои сообщения
    Вы не можете голосовать в опросах
    Вы не можете прикреплять файлы к сообщениям
    Вы можете скачивать файлы
    Падение ангела / Angel Has Fallen [2019, боевик, UHD BDRemux 2160p] Дубляж [Лицензия] смотреть онлайн, скачать торрент picoco.icu