Достать ножи: Стеклянная луковица

MVO

Добыча

Дубляж

Уэнсдэй

1 сезон

Тор

Дубляж

13 клиническая

1 сезон

Жестокая ночь

MVO

Одни из нас

1 сезон

Deluxe

pack

Рекомендуем

30

Пиратка

ВАЖНО

ВАЖНО

Ghostwire

Пиратка

jed

RePack

nioh2

RePack

RDR2

RePack

NEED FOR SPEED™ PAYBACK

RePack

скачать торрент

Кинопоиск HD

Острые козырьки 6 сезон

6 сезон

FAR CRY 6

RePack

скачать торрент

Лицензия

скачать торрент

MVO

1

1 сезон

скачать торрент

1 сезон

скачать торрент

Лицензия

  

Падение ангела / Angel Has Fallen (Рик Роман Во) [2019, боевик, UHD BDRemux 2160p, (Dolby Vision TV)] Дубляж [Лицензия]

Падение ангела через торрент piratbit.org

Размер: 63.67 GB | Добавлен: 2 года 8 мес. назад | Торрент скачан:21 раз
Смотреть онлайн | Скачать | Поддержите нас   

17-11-2019 21:35 Падение ангела Скачать торрент  

Падение ангела | Angel Has Fallen
Год выпуска: 2019
Страна: США
Студия: Campbell Grobman Films, Eclectic Pictures, G-BASE
Жанр: боевик
Продолжительность: 02:01:03
Перевод: Дублированный | Лицензия
Субтитры: отсутствуют

Режиссер: Рик Роман Во

rating

В ролях: Джерард Батлер, Морган Фриман, Пайпер Перабо, Джада Пинкетт Смит, Ник Нолти, Лэнс Реддик, Дэнни Хьюстон, Тим Блейк Нельсон, Майкл Лэндис, Крис Браунинг

Описание: Третья часть антитеррористической экшен-франшизы про высококлассного агента секретной службы США Майка Бэннинга (Джерард Батлер), который спасает от смертельного заговора первых лиц мировой политики. На этот раз целью террористов становится сам Бэннинг. Его подставляют и обвиняют в покушении на президента страны (Морган Фриман) — и теперь его разыскивают все спецслужбы. Чтобы очистить свое доброе имя, Бэннингу нужно самостоятельно раскрыть заговор.

Качество: UHD BDRemux 2160p | Dolby Vision TV
Формат: MP4

Видео: 3840x2160 at 23.976 fps, MPEG-H HEVC HDR, Dolby Vision Video, 66800 kbps avg
Аудио: 48 kHz, AC3, 5.1, 640 Kbps | Лицензия | RUS |
Данный вид релизов (контейнер MP4) предназначен для встроенного в ТВ (соответственно, с поддержкой DV) плеер.
Т.Е. Можно использовать как USB flash/HDD, так и DLNA / Plex - подобные сервисы/программы. дополнительный-внешний плеер не обязателен.

Внимание!
На моделях LG 2016 возможны сюрпризы "через раз", 2017-2018 должно идти без сюрпризов )
скриншот  скриншот  скриншот  скриншот  скриншот  

General
Complete name : D:Video222Angel.has.Fallen.2019.BDREMUX.2160p.HDR.DV_TV.seleZenAngel.has.Fallen.2019.BDREMUX.2160p.HDR.DV_TV.seleZen.mp4
Format : MPEG-4
Format profile : Base Media / Version 2
Codec ID : mp42 (mp42/dby1/isom)
File size : 63.7 GiB
Duration : 2 h 1 min
Overall bit rate : 75.3 Mb/s
Encoded date : UTC 2020-05-20 16:20:10
Tagged date : UTC 2020-05-20 16:20:10

Video #1
ID : 1
Format : HEVC
Format/Info : High Efficiency Video Coding
Format profile : Main 10@L5.1@High
HDR format : SMPTE ST 2086, HDR10 compatible
Codec ID : hev1
Codec ID/Info : High Efficiency Video Coding
Duration : 2 h 1 min
Bit rate : 66.8 Mb/s
Width : 3 840 pixels
Height : 2 160 pixels
Display aspect ratio : 16:9
Frame rate mode : Constant
Frame rate : 23.976 (24000/1001) FPS
Color space : YUV
Chroma subsampling : 4:2:0 (Type 2)
Bit depth : 10 bits
Bits/(Pixel*Frame) : 0.336
Stream size : 56.5 GiB (89%)
Default : No
Encoded date : UTC 2020-05-20 16:20:10
Tagged date : UTC 2020-05-20 16:20:10
Color range : Limited
Color primaries : BT.2020
Transfer characteristics : PQ
Matrix coefficients : BT.2020 non-constant
Mastering display color pri: Display P3
Mastering display luminance: min: 0.0010 cd/m2, max: 1000 cd/m2
Maximum Content Light Level: 1000 cd/m2
Maximum Frame-Average Light: 634 cd/m2
Codec configuration box : hvcC

Video #2
ID : 2
Format : HEVC
Format/Info : High Efficiency Video Coding
Format profile : Main 10@L5.1@High
HDR format : Dolby Vision, Version 1.0, dvhe.07.06, EL+RPU, Blu-ray compatible / SMPTE ST 2086, HDR10 compatible
Codec ID : dvhe
Codec ID/Info : High Efficiency Video Coding with Dolby Vision
Duration : 2 h 1 min
Bit rate : 7 854 kb/s
Width : 1 920 pixels
Height : 1 080 pixels
Display aspect ratio : 16:9
Frame rate mode : Constant
Frame rate : 23.976 (24000/1001) FPS
Color space : YUV
Chroma subsampling : 4:2:0 (Type 2)
Bit depth : 10 bits
Bits/(Pixel*Frame) : 0.158
Stream size : 6.64 GiB (10%)
Default : No
Encoded date : UTC 2020-05-20 16:20:10
Tagged date : UTC 2020-05-20 16:20:10
Color range : Limited
Color primaries : BT.2020
Transfer characteristics : PQ
Matrix coefficients : BT.2020 non-constant
Mastering display color pri: Display P3
Mastering display luminance: min: 0.0010 cd/m2, max: 1000 cd/m2
Codec configuration box : hvcC+dvcC

Audio
ID : 3
Format : AC-3
Format/Info : Audio Coding 3
Commercial name : Dolby Digital
Codec ID : ac-3
Duration : 2 h 1 min
Bit rate mode : Constant
Bit rate : 640 kb/s
Channel(s) : 6 channels
Channel layout : L R C LFE Ls Rs
Sampling rate : 48.0 kHz
Frame rate : 31.250 FPS (1536 SPF)
Compression mode : Lossy
Stream size : 554 MiB (1%)
Language : Russian
Service kind : Complete Main
Default : No
Encoded date : UTC 2020-05-20 16:20:10
Tagged date : UTC 2020-05-20 16:20:10




Скачать Падение ангела через торрент https://img15.lostpic.net/2019/11/15/12a05006dd16781feb6d1ed67a110622.jpg Скачать, смотреть онлайн Падение ангела бесплантно в хорошем качестве Описание: Третья часть антитеррористической экшен-франшизы про высококлассного агента секретной службы США Майка Бэннинга (Джерард Батлер), ... 9.9 10 7
Торрент: Зарегистрирован [2020-05-20 17:24] · скачан: 21 раз
Статус: √ проверено
Размер: 63.67 GB
Как cкачать? Как скачать Падение ангела через торрент | UTorrent

% Раздел Тема Автор DL S | L
Фильмы [HD 720p, 1080p] (Хороший звук DUB, MVO) [ 2.07 GB ] Падение ангела / Angel Has Fallen | iTunes | 1080p, HEVC (10bit Мичман37 Скачать
1 | 0
Фильмы 2019-2020 [DVDrip, WEB-DLRip, HDrip] (DUB, MVO) [ 2.18 GB ] Падение ангела / Angel Has Fallen | Лицензия | BDRip Twi7ter Скачать
2 | 2
Фильмы 2019-2020 [DVDrip, WEB-DLRip, HDrip] (DUB, MVO) [ 1.46 GB ] Падение ангела / Angel Has Fallen | Лицензия | BDRip Twi7ter Скачать
1 | 1

28-11-2019 20:33  


Отключить вcю реклaмy на сайте, в т.ч. и в плеере онлайн просмотра!

09-10-2020 02:01 Падение ангела Скачать торрент  

пожалуйста встаньте на раздачу



    Дорогой пользователь! Огромная просьба, поблагодарите релизера, оцените раздачу и оставьте свои комментарий, если Вы скачали Падение ангела через торрент бесплатно!!
    Комментировать посты могут только пользователи прошедшие не сложную регистрацию
    Показать сообщения:    


    Падение ангела через торрент
    Скачать бесплатно Падение ангела
    Падение ангела скачать торрент
    Падение ангела смотреть онлайн
    Cкачать фильм Падение ангела бесплатно
    Падение ангела скачать торрент в хорошем качестве
    Падение ангела смотреть онлайн бесплатно в хорошем качестве
    Вы не можете начинать темы
    Вы не можете отвечать на сообщения
    Вы не можете редактировать свои сообщения
    Вы не можете удалять свои сообщения
    Вы не можете голосовать в опросах
    Вы не можете прикреплять файлы к сообщениям
    Вы можете скачивать файлы
    Падение ангела / Angel Has Fallen [2019, боевик, UHD BDRemux 2160p, ] Дубляж [Лицензия] смотреть онлайн, скачать торрент picoco.icu