Доктор Стрэндж

Лицензия

Добыча

Дубляж

Дом дракона

1 сезон

Тор

Дубляж

В эфире

Дубляж

Там, где раки поют

MVO

Властелин колец

1 сезон

GLOBAL

pack

Рекомендуем

30

Пиратка

ВАЖНО

ВАЖНО

Ghostwire

Пиратка

jed

RePack

nioh2

RePack

RDR2

RePack

NEED FOR SPEED™ PAYBACK

RePack

скачать торрент

Кинопоиск HD

Острые козырьки 6 сезон

6 сезон

FAR CRY 6

RePack

скачать торрент

Лицензия

скачать торрент

MVO

1

1 сезон

скачать торрент

1 сезон

скачать торрент

Лицензия

  

Бегущий человек / The Running Man (Кэрол Рид) [1963, криминал, драма, триллер, BDRip 720p ] Дубляж, MVO

Бегущий человек через торрент piratbit.org

Размер: 4.09 GB | Добавлен: 3 года назад | Торрент скачан:6 раз
Смотреть онлайн | Скачать   

18-11-2019 08:30 Бегущий человек Скачать торрент  

Название: Бегущий человек
Оригинальное название: The Running Man
Год выпуска: 1963
Страна: Великобритания, США
Жанр: криминал, драма, триллер
Продолжительность: 01:44:15
Перевод: дублированный, профессиональный многоголосый

Режиссер: Кэрол Рид
В ролях: Ли Ремик, Лоуренс Харви, Алан Бэйтс, Феликс Эйлмер, Элеанор Саммерфилд, Аллан Катбертсон, Харольд Голдблатт, Ноэль Пёрселл, Рэмси Эймз, Фернандо Рей, Хуанхо Менендес, Эдди Бирн, Колин Гордон, Джон Мейллон, Роджер Делгадо, Фортунио Бонанова, Хосе Кальво, Мария Гранада, Херберт Куриэль, Памела Мэнт, Локвуд Уэст, Боб Каннингэм, Рафаэль Альбаисин, Хуан Хименес

Описание: Английский лётчик Рекс Блэк проворачивает смелую аферу: инсценирует собственную смерть и бежит за границу. Его жена Стела, получив приличную сумму от страховой компании за смерть супруга, присоединяется к нему в прекрасном испанском городе Малага. Оба не могут нарадоваться своей изобретательности. Но их безмятежное счастье вскоре омрачится появлением страхового агента Стивена Меддокса, успевшего переменить род занятий и не знающего о махинации со страховкой. Рекс совершает преступление, столкнув его машину в пропасть. Но Стивен остаётся в живых. Остаётся единственный выход — бежать... Сценарий написан на основе романа Шелли Смита "Баллада о бегущем человеке" (1961).



Качество: BDRip 720p
Формат: MKV
Видео: MPEG-4 AVC, 4714 Кбит/с, 1280x534, 23.976 кадр/с
Аудио 1: русский, AC3, 192 kbps, 2 ch, 48 kHz [дублированный, Мосфильм]
Аудио 2: русский, AC3, 192 kbps, 2 ch, 48 kHz [закадровый многоголосый, Первый канал]
Аудио 3: английский, AC3, 192 kbps, 1 ch, 48 kHz [оригинал]
Аудио 4: английский, AC3, 320 kbps, 1 ch, 48 kHz [commentary]
Субтитры: английские
Главы/чаптеры
Общее
Уникальный идентификатор : 216134557970725148090801053735277087547 (0xA29A0070CE264C529AD462D79BD8CB3B)
Полное имя : D:\Video\Бегущий человек.1963.BDRip 720p by msltel.mkv
Формат : Matroska
Версия формата : Version 4
Размер файла : 4,09 Гбайт
Продолжительность : 1 ч. 44 м.
Общий поток : 5613 Кбит/сек
Название фильма : Rip by msltel
Дата кодирования : UTC 2019-11-18 02:41:40
Программа кодирования : mkvmerge v8.2.0 ('World of Adventure') 64bit
Библиотека кодирования : libebml v1.3.1 + libmatroska v1.4.2

Видео
Идентификатор : 1
Формат : AVC
Формат/Информация : Advanced Video Codec
Профиль формата : High@L4.1
Настройки формата : CABAC / 9 Ref Frames
Параметр CABAC формата : Да
Параметр RefFrames формата : 9 кадров
Идентификатор кодека : V_MPEG4/ISO/AVC
Продолжительность : 1 ч. 44 м.
Битрейт : 4714 Кбит/сек
Ширина : 1280 пикселей
Высота : 534 пикселя
Соотношение сторон : 2,40:1
Режим частоты кадров : Постоянный
Частота кадров : 23,976 (24000/1001) кадра/сек
Цветовое пространство : YUV
Субдискретизация насыщенности : 4:2:0
Битовая глубина : 8 бит
Тип развёртки : Прогрессивная
Бит/(Пиксели*Кадры) : 0.288
Размер потока : 3,43 Гбайт (84%)
Библиотека кодирования : x264 core 157 r2935 545de2f
Настройки программы : cabac=1 / ref=9 / deblock=1:-2:-2 / analyse=0x3:0x113 / me=umh / subme=11 / psy=1 / psy_rd=1.00:0.15 / mixed_ref=1 / me_range=32 / chroma_me=1 / trellis=2 / 8x8dct=1 / cqm=0 / deadzone=21,11 / fast_pskip=0 / chroma_qp_offset=-3 / threads=6 / lookahead_threads=1 / sliced_threads=0 / nr=0 / decimate=1 / interlaced=0 / bluray_compat=0 / constrained_intra=0 / bframes=12 / b_pyramid=2 / b_adapt=2 / b_bias=0 / direct=1 / weightb=1 / open_gop=0 / weightp=2 / keyint=230 / keyint_min=23 / scenecut=40 / intra_refresh=0 / rc_lookahead=40 / rc=crf / mbtree=1 / crf=19.0 / qcomp=0.60 / qpmin=0 / qpmax=69 / qpstep=4 / vbv_maxrate=50000 / vbv_bufsize=62500 / crf_max=0.0 / nal_hrd=none / filler=0 / ip_ratio=1.40 / aq=1:1.00
Язык : English
Default : Да
Forced : Нет

Аудио #1
Идентификатор : 2
Формат : AC-3
Формат/Информация : Audio Coding 3
Коммерческое название : Dolby Digital
Идентификатор кодека : A_AC3
Продолжительность : 1 ч. 44 м.
Вид битрейта : Постоянный
Битрейт : 192 Кбит/сек
Каналы : 2 канала
ChannelLayout : L R
Частота : 48,0 КГц
Частота кадров : 31,250 кадров/сек (1536 SPF)
Метод сжатия : С потерями
Размер потока : 143 Мбайт (3%)
Заголовок : Дубляж Мосфильм
Язык : Russian
ServiceKind/String : Complete Main
Default : Да
Forced : Нет

Аудио #2
Идентификатор : 3
Формат : AC-3
Формат/Информация : Audio Coding 3
Коммерческое название : Dolby Digital
Идентификатор кодека : A_AC3
Продолжительность : 1 ч. 44 м.
Вид битрейта : Постоянный
Битрейт : 192 Кбит/сек
Каналы : 2 канала
ChannelLayout : L R
Частота : 48,0 КГц
Частота кадров : 31,250 кадров/сек (1536 SPF)
Метод сжатия : С потерями
Размер потока : 143 Мбайт (3%)
Заголовок : MVO Первый канал
Язык : Russian
ServiceKind/String : Complete Main
Default : Нет
Forced : Нет

Аудио #3
Идентификатор : 4
Формат : AC-3
Формат/Информация : Audio Coding 3
Коммерческое название : Dolby Digital
Идентификатор кодека : A_AC3
Продолжительность : 1 ч. 44 м.
Вид битрейта : Постоянный
Битрейт : 192 Кбит/сек
Каналы : 1 канал
ChannelLayout : C
Частота : 48,0 КГц
Частота кадров : 31,250 кадров/сек (1536 SPF)
Метод сжатия : С потерями
Размер потока : 143 Мбайт (3%)
Заголовок : original
Язык : English
ServiceKind/String : Complete Main
Default : Нет
Forced : Нет

Аудио #4
Идентификатор : 5
Формат : AC-3
Формат/Информация : Audio Coding 3
Коммерческое название : Dolby Digital
Идентификатор кодека : A_AC3
Продолжительность : 1 ч. 44 м.
Вид битрейта : Постоянный
Битрейт : 320 Кбит/сек
Каналы : 1 канал
ChannelLayout : C
Частота : 48,0 КГц
Частота кадров : 31,250 кадров/сек (1536 SPF)
Метод сжатия : С потерями
Размер потока : 239 Мбайт (6%)
Заголовок : commentary
Язык : English
ServiceKind/String : Complete Main
Default : Нет
Forced : Нет

Текст
Идентификатор : 6
Формат : UTF-8
Идентификатор кодека : S_TEXT/UTF8
Идентификатор кодека/Информация : UTF-8 Plain Text
Продолжительность : 1 ч. 42 м.
Битрейт : 60 бит/сек
ElementCount : 1205
Размер потока : 45,2 Кбайт (0%)
Заголовок : английские
Язык : English
Default : Нет
Forced : Нет

Меню
00:00:00.000 : :Chapter 1
00:07:17.437 : :Chapter 2
00:16:04.338 : :Chapter 3
00:24:52.657 : :Chapter 4
00:35:40.847 : :Chapter 5
00:42:15.949 : :Chapter 6
00:51:02.726 : :Chapter 7
01:00:30.376 : :Chapter 8
01:08:44.370 : :Chapter 9
01:16:22.786 : :Chapter 10
01:25:13.274 : :Chapter 11
01:33:18.843 : :Chapter 12
01:44:14.706 : :Chapter 13



Скачать Бегущий человек через торрент https://c.radikal.ru/c28/1911/b3/1976c54b5dae.jpg Скачать, смотреть онлайн Бегущий человек бесплантно в хорошем качестве Описание: Английский лётчик Рекс Блэк проворачивает смелую аферу: инсценирует собственную смерть и бежит за границу. Его жена Стела, ... 10 10 1
Торрент: Зарегистрирован [2019-11-18 08:30] · скачан: 6 раз
Статус: √ проверено
Размер: 4.09 GB
Как cкачать? Как скачать Бегущий человек через торрент | UTorrent

28-11-2019 20:33  


Отключить вcю реклaмy на сайте, в т.ч. и в плеере онлайн просмотра!

    Дорогой пользователь! Огромная просьба, поблагодарите релизера, оцените раздачу и оставьте свои комментарий, если Вы скачали Бегущий человек через торрент бесплатно!!
    Комментировать посты могут только пользователи прошедшие не сложную регистрацию
    Показать сообщения:    


    Бегущий человек через торрент
    Скачать бесплатно Бегущий человек
    Бегущий человек скачать торрент
    Бегущий человек смотреть онлайн
    Cкачать фильм Бегущий человек бесплатно
    Бегущий человек скачать торрент в хорошем качестве
    Бегущий человек смотреть онлайн бесплатно в хорошем качестве
    Вы не можете начинать темы
    Вы не можете отвечать на сообщения
    Вы не можете редактировать свои сообщения
    Вы не можете удалять свои сообщения
    Вы не можете голосовать в опросах
    Вы не можете прикреплять файлы к сообщениям
    Вы можете скачивать файлы
    Бегущий человек / The Running Man [1963, криминал, драма, триллер, BDRip 720p ] Дубляж, MVO смотреть онлайн, скачать торрент picoco.icu