Ссылка на приватное зеркало нашего сайта всего за 1$. Внимание количество ограничено!!!

2 сезон

iTunes

iTunes

1

iTunes

iTunes

iTunes

WEBRip

iTunes

30
pack

Вам бонус

ВАЖНО

!!Акция!!

Alien_RageХит недели

RePack

Horizon Zero Dawn

ИГРА 18+

pack

RePack

jed

!!Акция!!

Alien_Rage

RePack

fifa19

RePack

Assassins Creed: Odyssey

RePack

NEED FOR SPEED™ PAYBACK

4 сезон

9 сезон

Бесстыжие 9 сезон

Все сериалы

все сериалы на PB.wtf

RePack

FAR CRY 5
  

Пыль времени / I skoni tou hronou (Тео Ангелопулос) [2008, драма, BDRip (AVC) by msltel] DUB piratbit.org

Пыль времени через торрент piratbit.org

Размер: 3.51 GB | Добавлен: 10 мес. назад | Торрент скачан:8 раз
Скачать  

18-11-2019 10:59 Пыль времени Скачать торрент  

Название: Пыль времени
Оригинальное название: I skoni tou hronou
Год выпуска: 2008
Страна: Германия, Россия, Франция, Италия, Греция
Жанр: драма
Продолжительность: 02:07:48
Перевод: дублированный

Режиссер: Тео Ангелопулос
В ролях: Уиллем Дефо, Бруно Ганц, Мишель Пикколи, Ирен Жакоб, Кристиана Пауль, Костас Апостолидис, Алессия Франкини, Валентина Карнелутти, Ненад Лучич

О фильме: Действие разворачивается во второй половине века - с 1953 года по первое утро нового тысячелетия... Это история жизни американского режиссёра греческого происхождения с момента его рождения и до наших дней. Это история войн, политических переворотов, великих надежд и разочарований. История, полная глубокой печали. Конец культа Сталина, положенный ХХ съездом КПСС, отстранение с поста президента США Никсона в связи с уотергейтским скандалом, падение Берлинской стены...



Качество: BDRip (AVC)
Формат: MKV
Видео: MPEG-4 AVC, 2844 Kбит/с, 1024x552, 23.976 кадр/с
Аудио 1: русский, AC3, 448 kbps, 6 ch, 48 kHz [дублированный]
Аудио 2: английский, AC3, 640 kbps, 6 ch, 48 kHz [оригинал]
Субтитры 1: русские
Субтитры 2: английские
Субтитры 3: английские (на неанглийскую речь)
Главы/чаптеры
Общее
Уникальный идентификатор : 215018844038242780847314558516700089867 (0xA1C31F7F294D9613AF639BB2AE578E0B)
Полное имя : D:\Video\Пыль времени.2008.BDRip (AVC) by msltel.mkv
Формат : Matroska
Версия формата : Version 4
Размер файла : 3,51 Гбайт
Продолжительность : 2 ч. 7 м.
Общий поток : 3934 Кбит/сек
Название фильма : Rip by msltel
Дата кодирования : UTC 2019-11-18 05:39:28
Программа кодирования : mkvmerge v8.2.0 ('World of Adventure') 64bit
Библиотека кодирования : libebml v1.3.1 + libmatroska v1.4.2

Видео
Идентификатор : 1
Формат : AVC
Формат/Информация : Advanced Video Codec
Профиль формата : High@L4.1
Настройки формата : CABAC / 9 Ref Frames
Параметр CABAC формата : Да
Параметр RefFrames формата : 9 кадров
Идентификатор кодека : V_MPEG4/ISO/AVC
Продолжительность : 2 ч. 7 м.
Битрейт : 2844 Кбит/сек
Ширина : 1024 пикселя
Высота : 552 пикселя
Соотношение сторон : 1,85:1
Режим частоты кадров : Постоянный
Частота кадров : 23,976 (24000/1001) кадра/сек
Цветовое пространство : YUV
Субдискретизация насыщенности : 4:2:0
Битовая глубина : 8 бит
Тип развёртки : Прогрессивная
Бит/(Пиксели*Кадры) : 0.210
Размер потока : 2,54 Гбайт (72%)
Библиотека кодирования : x264 core 157 r2935 545de2f
Настройки программы : cabac=1 / ref=9 / deblock=1:-2:-2 / analyse=0x3:0x113 / me=umh / subme=11 / psy=1 / psy_rd=1.00:0.15 / mixed_ref=1 / me_range=32 / chroma_me=1 / trellis=2 / 8x8dct=1 / cqm=0 / deadzone=21,11 / fast_pskip=0 / chroma_qp_offset=-3 / threads=6 / lookahead_threads=1 / sliced_threads=0 / nr=0 / decimate=1 / interlaced=0 / bluray_compat=0 / constrained_intra=0 / bframes=10 / b_pyramid=2 / b_adapt=2 / b_bias=0 / direct=1 / weightb=1 / open_gop=0 / weightp=2 / keyint=230 / keyint_min=23 / scenecut=40 / intra_refresh=0 / rc_lookahead=40 / rc=crf / mbtree=1 / crf=18.0 / qcomp=0.60 / qpmin=0 / qpmax=69 / qpstep=4 / vbv_maxrate=50000 / vbv_bufsize=62500 / crf_max=0.0 / nal_hrd=none / filler=0 / ip_ratio=1.40 / aq=1:1.00
Язык : English
Default : Да
Forced : Нет

Аудио #1
Идентификатор : 2
Формат : AC-3
Формат/Информация : Audio Coding 3
Коммерческое название : Dolby Digital
Идентификатор кодека : A_AC3
Продолжительность : 2 ч. 7 м.
Вид битрейта : Постоянный
Битрейт : 448 Кбит/сек
Каналы : 6 каналов
ChannelLayout : L R C LFE Ls Rs
Частота : 48,0 КГц
Частота кадров : 31,250 кадров/сек (1536 SPF)
Метод сжатия : С потерями
Размер потока : 410 Мбайт (11%)
Заголовок : DUB
Язык : Russian
ServiceKind/String : Complete Main
Default : Да
Forced : Нет

Аудио #2
Идентификатор : 3
Формат : AC-3
Формат/Информация : Audio Coding 3
Коммерческое название : Dolby Digital
Идентификатор кодека : A_AC3
Продолжительность : 2 ч. 7 м.
Вид битрейта : Постоянный
Битрейт : 640 Кбит/сек
Каналы : 6 каналов
ChannelLayout : L R C LFE Ls Rs
Частота : 48,0 КГц
Частота кадров : 31,250 кадров/сек (1536 SPF)
Метод сжатия : С потерями
Размер потока : 585 Мбайт (16%)
Заголовок : original
Язык : English
ServiceKind/String : Complete Main
Default : Нет
Forced : Нет

Текст #1
Идентификатор : 4
Формат : UTF-8
Идентификатор кодека : S_TEXT/UTF8
Идентификатор кодека/Информация : UTF-8 Plain Text
Продолжительность : 2 ч. 3 м.
Битрейт : 41 бит/сек
ElementCount : 708
Размер потока : 37,3 Кбайт (0%)
Заголовок : русские
Язык : Russian
Default : Нет
Forced : Нет

Текст #2
Идентификатор : 5
Формат : UTF-8
Идентификатор кодека : S_TEXT/UTF8
Идентификатор кодека/Информация : UTF-8 Plain Text
Продолжительность : 2 ч. 4 м.
Битрейт : 24 бит/сек
ElementCount : 729
Размер потока : 22,5 Кбайт (0%)
Заголовок : английские
Язык : English
Default : Нет
Forced : Нет

Текст #3
Идентификатор : 6
Формат : UTF-8
Идентификатор кодека : S_TEXT/UTF8
Идентификатор кодека/Информация : UTF-8 Plain Text
Продолжительность : 2 ч. 5 м.
Битрейт : 4 бит/сек
ElementCount : 119
Размер потока : 3,83 Кбайт (0%)
Заголовок : английские на неанглийскую речь
Язык : English
Default : Нет
Forced : Нет

Меню
00:00:00.000 : :Глава 01
00:08:09.030 : :Глава 02
00:20:04.077 : :Глава 03
00:27:06.041 : :Глава 04
00:30:04.719 : :Глава 05
00:35:10.525 : :Глава 06
00:44:57.236 : :Глава 07
00:49:57.202 : :Глава 08
00:58:10.236 : :Глава 09
01:05:31.427 : :Глава 10
01:13:56.098 : :Глава 11
01:16:45.726 : :Глава 12
01:21:01.481 : :Глава 13
01:24:43.203 : :Глава 14
01:33:55.796 : :Глава 15
01:38:22.104 : :Глава 16
01:43:54.019 : :Глава 17
01:57:09.105 : :Глава 18
piratbit.org



Скачать Пыль времени через торрент https://a.radikal.ru/a02/1911/13/96c7356700c9.jpg Скачать фильм Пыль времени через торрент бесплантно в хорошем качестве О фильме: Действие разворачивается во второй половине века - с 1953 года по первое утро нового тысячелетия... Это история жизни ... 5 10 1
Торрент: Зарегистрирован [2019-11-18 10:59] · скачан: 8 раз
Статус: √ проверено
Размер: 3.51 GB
Как cкачать? Как скачать Пыль времени через торрент | qTorrent

% Раздел Тема Автор DL S | L
Фильмы [HD 720p, 1080p] (Хороший звук DUB, MVO) [ 14.25 GB ] Пыль времени / I skoni tou hronou [2008 BDRip 1080p by msltel] DUB msltel Скачать
1 | 0
Фильмы [HD 720p, 1080p] (Хороший звук DUB, MVO) [ 5.74 GB ] Пыль времени / I skoni tou hronou [2008 BDRip 720p by msltel] DUB msltel Скачать
1 | 0

28-11-2019 20:33  

Отключить всю рекламу на сайте

    Дорогой пользователь! Огромная просьба, поблагодарите релизера, оцените раздачу и оставьте свои комментарий, если Вы скачали Пыль времени через торрент бесплатно! Внесите свою лепту в развитие PiratBit!
    Комментировать посты могут только пользователи прошедшие не сложную регистрацию
    Показать сообщения:    

    Пыль времени через торрент
    Скачать бесплатно Пыль времени
    Пыль времени скачать торрент
    Пыль времени смотреть онлайн
    Cкачать фильм Пыль времени бесплатно
    Пыль времени скачать торрент в хорошем качестве
    Пыль времени смотреть онлайн бесплатно в хорошем качестве


    Вы не можете начинать темы
    Вы не можете отвечать на сообщения
    Вы не можете редактировать свои сообщения
    Вы не можете удалять свои сообщения
    Вы не можете голосовать в опросах
    Вы не можете прикреплять файлы к сообщениям
    Вы можете скачивать файлы