Доктор Стрэндж

Лицензия

Добыча

Дубляж

Дом дракона

1 сезон

Тор

Дубляж

В эфире

Дубляж

Там, где раки поют

MVO

Властелин колец

1 сезон

Ultimate

pack

Рекомендуем

30

Пиратка

ВАЖНО

ВАЖНО

Ghostwire

Пиратка

jed

RePack

nioh2

RePack

RDR2

RePack

NEED FOR SPEED™ PAYBACK

RePack

скачать торрент

Кинопоиск HD

Острые козырьки 6 сезон

6 сезон

FAR CRY 6

RePack

скачать торрент

Лицензия

скачать торрент

MVO

1

1 сезон

скачать торрент

1 сезон

скачать торрент

Лицензия

  

Куда ты пропала, Бернадетт? / Where'd You Go, Bernadette (Ричард Линклейтер) [2019 г., драма, комедия, детектив, WEB-DLRip, Дубляж "iTunes"]

Куда ты пропала, Бернадетт? через торрент piratbit.org

Размер: 2.09 GB | Добавлен: 3 года назад | Торрент скачан:190 раз
Смотреть онлайн | Скачать   

19-11-2019 18:34 Куда ты пропала, Бернадетт? Скачать торрент  

Куда ты пропала Бернадетт? / Where'd You Go Bernadette
Год выпуска: 2019
Страна: США / Annapurna Pictures, Color Force
Жанр: драма, комедия, детектив
Продолжительность: 01:44:29
Перевод: Дубляж (iTunes)

Режиссер: Ричард Линклейтер

rating

В ролях: Кейт Бланшетт, Джуди Грир, Кристен Уиг, Тройэн Эвери Беллисарио, Билли Крудап, Лоренс Фишбёрн, Стив Зан, Меган Маллалли, Клаудия Дурмит, Йоуханнес Хёйкьюр Йоуханнессон

Описание: У Бернадетт, очаровательной женщины и талантливого архитектора, есть всё: прекрасный дом, замечательная дочь, успешный и любящий муж. Хоть она и выбивается из "безупречной" компании соседских мамаш, никто не мог представить, что в один прекрасный день Бернадетт просто исчезнет без следа. Она отправляется на поиски себя, пытаясь обрести счастье на краю света.

Качество: WEB-DLRip
Формат: AVI
Видео кодек: DivX
Аудио кодек: AC3
Видео: 720x384 (1.88:1), 25 fps, DivX Codec 4.x ~2467 kbps avg, 0.36 bit/pixel
Аудио: 48 kHz, AC3 Dolby Digital, 3/2 (L,C,R,l,r) + LFE ch, ~384 kbps
скриншот   скриншот   скриншот   скриншот  

Общее
Полное имя : F:\ФИЛЬМЫ\Куда ты пропала, Бернадетт.2019.D.WEB.DLRip.avi
Формат : AVI
Формат/Информация : Audio Video Interleave
Профиль формата : OpenDML
Размер файла : 2,09 Гбайт
Продолжительность : 1 ч. 44 м.
Общий поток : 2858 Кбит/сек
Программа кодирования : VirtualDubMod 1.5.10.3 | www.virtualdub-fr.org || (build 2550/release)
Библиотека кодирования : VirtualDubMod build 2550/release

Видео
Идентификатор : 0
Формат : MPEG-4 Visual
Профиль формата : Advanced Simple@L5
Настройки формата : BVOP2 / GMC3 / QPel
Параметр BVOP формата : 2
Параметр QPel формата : Да
Параметр GMC формата : 3 точки перехода
Параметр матрицы формата : Default (MPEG)
Идентификатор кодека : DIVX
Идентификатор кодека/Информация : Project Mayo
Идентификатор кодека/Подсказка : DivX 4
Продолжительность : 1 ч. 44 м.
Битрейт : 2462 Кбит/сек
Ширина : 720 пикселей
Высота : 384 пикселя
Соотношение сторон : 1,85:1
Частота кадров : 25,000 кадров/сек
Цветовое пространство : YUV
Субдискретизация насыщенности : 4:2:0
Битовая глубина : 8 бит
Тип развёртки : Прогрессивная
Метод сжатия : С потерями
Бит/(Пиксели*Кадры) : 0.356
Размер потока : 1,80 Гбайт (86%)
Библиотека кодирования : XviD 1.2.1 (UTC 2008-12-04)

Аудио
Идентификатор : 1
Формат : AC-3
Формат/Информация : Audio Coding 3
Коммерческое название : Dolby Digital
Идентификатор кодека : 2000
Продолжительность : 1 ч. 44 м.
Вид битрейта : Постоянный
Битрейт : 384 Кбит/сек
Каналы : 6 каналов
ChannelLayout : L R C LFE Ls Rs
Частота : 48,0 КГц
Частота кадров : 31,250 кадров/сек (1536 SPF)
Метод сжатия : С потерями
Размер потока : 287 Мбайт (13%)
Выравнивание : Разделение по промежуткам
Продолжительность промежутка : 40 мс. (1,00 видеокадр)
Время предзагрузки промежутка : 500 мс.
ServiceKind/String : Complete Main




Скачать Куда ты пропала, Бернадетт? через торрент https://pic1.kartinco.top/images/12/r7y6b.jpg Скачать, смотреть онлайн Куда ты пропала, Бернадетт? бесплантно в хорошем качестве Описание: У Бернадетт, очаровательной женщины и талантливого архитектора, есть всё: прекрасный дом, замечательная дочь, успешный и любящий ... 10 10 3
Торрент: Зарегистрирован [2019-11-19 18:34] · скачан: 190 раз
Статус: √ проверено
Размер: 2.09 GB
Как cкачать? Как скачать Куда ты пропала, Бернадетт? через торрент | UTorrent

28-11-2019 20:33  


Отключить вcю реклaмy на сайте, в т.ч. и в плеере онлайн просмотра!

    Дорогой пользователь! Огромная просьба, поблагодарите релизера, оцените раздачу и оставьте свои комментарий, если Вы скачали Куда ты пропала, Бернадетт? через торрент бесплатно!!
    Комментировать посты могут только пользователи прошедшие не сложную регистрацию
    Показать сообщения:    


    Куда ты пропала, Бернадетт? через торрент
    Скачать бесплатно Куда ты пропала, Бернадетт?
    Куда ты пропала, Бернадетт? скачать торрент
    Куда ты пропала, Бернадетт? смотреть онлайн
    Cкачать фильм Куда ты пропала, Бернадетт? бесплатно
    Куда ты пропала, Бернадетт? скачать торрент в хорошем качестве
    Куда ты пропала, Бернадетт? смотреть онлайн бесплатно в хорошем качестве
    Вы не можете начинать темы
    Вы не можете отвечать на сообщения
    Вы не можете редактировать свои сообщения
    Вы не можете удалять свои сообщения
    Вы не можете голосовать в опросах
    Вы не можете прикреплять файлы к сообщениям
    Вы можете скачивать файлы
    Куда ты пропала, Бернадетт? / Where'd You Go, Bernadette [2019 г., драма, комедия, детектив, WEB-DLRip, Дубляж "iTunes"] смотреть онлайн, скачать торрент picoco.icu