Лицензия

MVO

1

1 сезон

Лицензия

Лицензия

13

MVO

1 сезон

Deluxe Edition

pack

Рекомендуем

30

Repack

ВАЖНО

ВАЖНО

Ghostwire

RePack

jed

RePack

fifa19

RePack

RDR2

RePack

NEED FOR SPEED™ PAYBACK

RePack

Кинопоиск HD

 Острые козырьки 6 сезон

6 сезон

FAR CRY 6

RePack

Лицензия

MVO

1

1 сезон

1 сезон

Лицензия

  

Всё для вас (Мария Барабанова) [1964, СССР, мюзикл, комедия, DVDRip от AVP Studio]

Всё для вас через торрент piratbit.org

Качают: 1 [ 0 KB/s ]
Размер: 1.09 GB | Добавлен: 2 года 10 мес. назад | Торрент скачан:17 раз
Смотреть онлайн Всё для вас | Скачать   

20-11-2019 09:19 Всё для вас Скачать торрент  

Всё для вас
Страна: СССР
Производство: Киностудия им. М. Горького

Жанр: мюзикл, комедия
Год выпуска: 1964
Продолжительность: 01:20:24

Перевод: Не требуется
Cубтитры: нет
Оригинальная аудиодорожка: русский

Режиссер: Мария Барабанова

В ролях:
Мария Барабанова, Татьяна Пельтцер, Юрий Беркун, Людмила Черепанова, Татьяна Гаврилова, Леонид Куравлёв, Борис Иванов, Ольга Аросева, Николай Кодин, Константин Карельских, Борис Бибиков, Юрий Саранцев, Леонид Харитонов, Валерий Козинец, Анатолий Обухов, Борис Бушмелёв, Николай Коршилов...
Об актёрах подробней

Описание:
Маша Барашкина обладает необыкновенными организаторскими способностями. Она помогла открыть детскую больницу, стадион, ателье. А теперь Барашкина должна возглавить комбинат бытового обслуживания «Всё для Вас».

Источник: DVD5 R5
Качество видео: DVDRip
Формат видео: AVI

Видео: 704х528 (4:3), 25,000 fps, XviD ~ 1738 kbps avg, 0.187 bit/pixel
Аудио: 48 kHz, Dolby Digital AC3 2.0, 192 kbps

Раздача от:
Общее
Полное имя : Vse.dlya.vas.1964.DVDRip_[New-team]_by_AVP_Studio.avi
Формат : AVI
Формат/Информация : Audio Video Interleave
Размер файла : 1,09 Гбайт
Продолжительность : 1 ч. 20 м.
Общий поток : 1940 Кбит/сек
Программа кодирования : VirtualDubMod 1.5.10.3 | www.virtualdub-fr.org || (build 2550/release)
Библиотека кодирования : VirtualDubMod build 2550/release

Видео
Идентификатор : 0
Формат : MPEG-4 Visual
Профиль формата : Advanced Simple@L5
Настройки формата : BVOP1 / Custom Matrix
Параметр BVOP формата : 1
Параметр QPel формата : Нет
Параметр GMC формата : Без точки перехода
Параметр матрицы формата : Выборочная
Идентификатор кодека : XVID
Идентификатор кодека/Подсказка : XviD
Продолжительность : 1 ч. 20 м.
Битрейт : 1738 Кбит/сек
Ширина : 704 пикселя
Высота : 528 пикселей
Соотношение сторон : 4:3
Частота кадров : 25,000 кадров/сек
Цветовое пространство : YUV
Субдискретизация насыщенности : 4:2:0
Битовая глубина : 8 бит
Тип развёртки : Прогрессивная
Метод сжатия : С потерями
Бит/(Пиксели*Кадры) : 0.187
Размер потока : 1000 Мбайт (90%)
Библиотека кодирования : XviD 73

Аудио
Идентификатор : 1
Формат : AC-3
Формат/Информация : Audio Coding 3
Коммерческое название : Dolby Digital
Идентификатор кодека : 2000
Продолжительность : 1 ч. 20 м.
Вид битрейта : Постоянный
Битрейт : 192 Кбит/сек
Каналы : 2 канала
ChannelLayout : L R
Частота : 48,0 КГц
Частота кадров : 31,250 кадров/сек (1536 SPF)
Битовая глубина : 16 бит
Метод сжатия : С потерями
Размер потока : 110 Мбайт (10%)
Выравнивание : Разделение по промежуткам
Продолжительность промежутка : 40 мс. (1,00 видеокадр)
Время предзагрузки промежутка : 500 мс



Скачать Всё для вас через торрент http://b.radikal.ru/b01/1911/88/6a8ba5f973e1.png Скачать, смотреть онлайн Всё для вас бесплантно в хорошем качестве Описание:Маша Барашкина обладает необыкновенными организаторскими способностями. Она помогла открыть детскую больницу, стадион, ателье. А ... 5 10 1
Торрент: Зарегистрирован [2019-11-20 09:19] · скачан: 17 раз
Статус: √ проверено
Размер: 1.09 GB
Как cкачать? Как скачать Всё для вас через торрент | UTorrent

% Раздел Тема Автор DL S | L
Кино СССР [ 1.09 GB ] Всё для вас | | DVDRip-AVC от AVP Studio AVP Studio Скачать
3 | 0

28-11-2019 20:33  

Отключить вcю реклaмy на сайте

    Дорогой пользователь! Огромная просьба, поблагодарите релизера, оцените раздачу и оставьте свои комментарий, если Вы скачали Всё для вас через торрент бесплатно!!
    Комментировать посты могут только пользователи прошедшие не сложную регистрацию
    Показать сообщения:    


    Всё для вас через торрент
    Скачать бесплатно Всё для вас
    Всё для вас скачать торрент
    Всё для вас смотреть онлайн
    Cкачать фильм Всё для вас бесплатно
    Всё для вас скачать торрент в хорошем качестве
    Всё для вас смотреть онлайн бесплатно в хорошем качестве
    Вы не можете начинать темы
    Вы не можете отвечать на сообщения
    Вы не можете редактировать свои сообщения
    Вы не можете удалять свои сообщения
    Вы не можете голосовать в опросах
    Вы не можете прикреплять файлы к сообщениям
    Вы можете скачивать файлы