новый адрес
Ссылка на приватное зеркало всего за 1$. Внимание количество ограничено!!!

iTunes

1+1

iTunes

мы

WEB-DL

1

iTunes

Чернобыль

iTunes

Ральф против интернета

Лицензия

ПШазам

Лицензия

Оно 2

Лицензия

30
pack

Вам бонус

ВАЖНО

!!Акция!!

Alien_RageХит недели

RePack

Resident Evil 21

ИГРА 18+

pack

RePack

jed

!!Акция!!

Alien_Rage

RePack

fifa19

RePack

Assassins Creed: Odyssey

RePack

NEED FOR SPEED™ PAYBACK

3 сезон

9 сезон

Бесстыжие 9 сезон

Все сериалы

все сериалы на PB.wtf

RePack

FAR CRY 5
Ребята, катастрофически не хватает 1900р. для оплаты серверов за Октябрь (всвязи с блокировками трафик упал в 3 раза), 1-2р., выручайте.
  

Рэй Донован / Ray Donovan / Сезон: 7 / Серия: 1-3 из 12 (Джон Дал, Майкл Аппендаль, Такер Гейтс) [2019, Драма, криминал, WEB-DLRip] MVO [Jaskier] piratbit.org

Рэй Донован через торрент piratbit.org

Качают: 1 [ 0 KB/s ]
Размер: 1.74 GB | Добавлен: 2 д. 4 ч. назад | Торрент скачан:1 раз
Скачать  

21-11-2019 07:44 Рэй Донован Скачать торрент  

✘ Рэй Донован | Ray Donovan ✘ ✦ Год выпуска: 2019
✦ Страна: США
✦ Жанр: Драма, криминал
✦ Продолжительность: ~00:55:00
✦ Перевод: Профессиональный (многоголосый закадровый) | Jaskier
✦ Субтитры: отсутствуют

✦ Режиссёр: Джон Дал, Майкл Аппендаль, Такер Гейтс

✦ В ролях: Лив Шрайбер, Паула Малкомсон, Кэтрин Монниг, Пуч Холл, Кэррис Дорси, Девон Бэгби, Джон Войт, Стивен Бауэр, Уильям Стэнфорд Дэвис, Майкл МакГрэйди, Фрэнк Уэйли, Эллиотт Гулд, Октавиус Дж. Джонсон, Эмбир Чилдерс и др.

✦ Описание: Лив Шрайбер возвращается в роли профессионального чистильщика — история Рэя Донована продолжается. В седьмом сезоне наш антигерой изо всех сил старается превратится в того человека, в ком нуждается его семья. И когда у него намечается небольшой прогресс в работе с психотерапевтом (приглашённая звезда Алан Алда), вновь возникают призраки прошлого. Они вынуждают Донована вернуться к прежней жизни. Ему приходится балансировать между решением проблем своих клиентов и тем, чтобы окончательно не слететь с катушек самому (и вдобавок не попасться властям). Тем временем коррупционные делишки нью-йоркского мэра приносят за собой отголоски тёмного прошлого папаши Рэя Микки (Джон Войт).



✦ Качество: WEB-DLRip
✦ Формат: AVI

✦ Видео: ~ 1400 kbps, 720x400, 23,976 fps
✦ Аудио#1 Ru: mp3, 48 KHz, 2 ch, 128 kbps
✦ Аудио#2 En: mp3, 48 KHz, 2 ch, 128 kbps
скриншот  скриншот  скриншот  

Общее
Полное имя : C:\Downloads\Ray Donovan. Season 7 (WEB-DLRip l 400p l Jaskier)\Ray.Donovan.S07E01.WEB-DLRip.Rus.Eng.Jaskier.avi
Формат : AVI
Формат/Информация : Audio Video Interleave
Размер файла : 609 Мбайт
Продолжительность : 50 м. 58 с.
Общий поток : 1670 Кбит/сек
Программа кодирования : VirtualDubMod 1.5.10.3 | www.virtualdub-fr.org || (build 2550/release)
Библиотека кодирования : VirtualDubMod build 2550/release

Видео
Идентификатор : 0
Формат : MPEG-4 Visual
Профиль формата : Advanced Simple@L5
Настройки формата : BVOP1 / Custom Matrix
Параметр BVOP формата : 1
Параметр QPel формата : Нет
Параметр GMC формата : Без точки перехода
Параметр матрицы формата : Выборочная
Идентификатор кодека : XVID
Идентификатор кодека/Подсказка : XviD
Продолжительность : 50 м. 58 с.
Битрейт : 1337 Кбит/сек
Ширина : 720 пикселей
Высота : 400 пикселей
Соотношение сторон : 16:9
Частота кадров : 23,976 (24000/1001) кадра/сек
Цветовое пространство : YUV
Субдискретизация насыщенности : 4:2:0
Битовая глубина : 8 бит
Тип развёртки : Прогрессивная
Метод сжатия : С потерями
Бит/(Пиксели*Кадры) : 0.194
Размер потока : 487 Мбайт (80%)
Библиотека кодирования : XviD 73

Аудио #1
Идентификатор : 1
Формат : MPEG Audio
Версия формата : Version 1
Профиль формата : Layer 3
Настройки формата : Joint stereo / MS Stereo
Идентификатор кодека : 55
Идентификатор кодека/Подсказка : MP3
Продолжительность : 50 м. 58 с.
Вид битрейта : Постоянный
Битрейт : 128 Кбит/сек
Каналы : 2 канала
Частота : 48,0 КГц
Метод сжатия : С потерями
Размер потока : 46,7 Мбайт (8%)
Выравнивание : Соединение по промежуткам

Аудио #2
Идентификатор : 2
Формат : MPEG Audio
Версия формата : Version 1
Профиль формата : Layer 3
Настройки формата : Joint stereo / MS Stereo
Идентификатор кодека : 55
Идентификатор кодека/Подсказка : MP3
Продолжительность : 50 м. 58 с.
Вид битрейта : Постоянный
Битрейт : 128 Кбит/сек
Каналы : 2 канала
Частота : 48,0 КГц
Метод сжатия : С потерями
Размер потока : 46,7 Мбайт (8%)
Выравнивание : Соединение по промежуткам

При каждом добавлении создаётся новый торрент. Чтобы начать докачку новой серии, пользователям необходимо сделать следующее:
- остановить скачивание;
- удалить старый торрент у себя из клиента (старые серии удалять не надо);
- скачать новый торрент и запустить его у себя в клиенте вместо старого, при этом указать клиенту путь в старую папку, куда и должно происходить скачивание новых серий.
piratbit.org



Скачать Рэй Донован через торрент https://d.radikal.ru/d32/1911/6b/07d0e5329a4b.png Скачать фильм Рэй Донован через торрент бесплантно в хорошем качестве Описание: Лив Шрайбер возвращается в роли профессионального чистильщика — история Рэя Донована продолжается. В седьмом сезоне наш антигерой ... 10 10 2
Торрент: Зарегистрирован [2019-12-04 18:22] · скачан: 1 раз
Статус: √ проверено
Размер: 1.74 GB
Как cкачать? Как скачать Рэй Донован через торрент | qTorrent

% Раздел Тема Автор DL S | L
Рэй Донован [ 8.61 GB ] Рэй Донован / Ray Donovan / Сезон: 7 / Серия: 1-3 из 12 [2019 WEB-DL 1080p] MVO [Novamedia / Amedia] bober100 Скачать
1 | 1
Рэй Донован [ 8.35 GB ] Рэй Донован / Ray Donovan / Сезон: 7 / Серия: 1-3 из 12 [2019 WEB-DL 1080p] MVO [Jaskier] bober100 Скачать
1 | 0
Рэй Донован [ 1.42 GB ] Рэй Донован / Ray Donovan / Сезон: 7 / Серии: 1-3 из 12 [2019 WEB-DLRip] [MVO] killermax2013 Скачать
3 | 4
Рэй Донован [ 4.17 GB ] Рэй Донован / Ray Donovan / Сезон: 7 / Серия: 1-3 из 12 [2019 WEB-DL 720p] MVO [Jaskier] bober100 Скачать
1 | 0
Рэй Донован [ 2.08 GB ] Рэй Донован / Ray Donovan / Сезон: 7 / Серия: 1-3 из 12 [2019 WEB-DLRip] MVO [NewStudio] bober100 Скачать
1 | 0
Рэй Донован [ 4.7 GB ] Рэй Донован / Ray Donovan / Сезон: 7 / Серия: 1-3 из 12 [2019 WEB-DL 720p] MVO [NewStudio] bober100 Скачать
1 | 0
Рэй Донован [ 8.88 GB ] Рэй Донован / Ray Donovan / Сезон: 7 / Серия: 1-3 из 12 [2019 WEB-DL 1080p] MVO [NewStudio] bober100 Скачать
2 | 2

28-11-2019 20:33  

Отключить всю рекламу на сайте

    Дорогой пользователь! Огромная просьба, поблагодарите релизера, оцените раздачу и оставьте свои комментарий, если Вы скачали Рэй Донован через торрент бесплатно! Внесите свою лепту в развитие PiratBit!
    Комментировать посты могут только пользователи прошедшие не сложную регистрацию
    Показать сообщения:    

    Рэй Донован через торрент
    Скачать бесплатно Рэй Донован
    Рэй Донован скачать торрент
    Рэй Донован смотреть онлайн
    Cкачать фильм Рэй Донован бесплатно
    Рэй Донован скачать торрент в хорошем качестве
    Рэй Донован смотреть онлайн бесплатно в хорошем качестве


    Вы не можете начинать темы
    Вы не можете отвечать на сообщения
    Вы не можете редактировать свои сообщения
    Вы не можете удалять свои сообщения
    Вы не можете голосовать в опросах
    Вы не можете прикреплять файлы к сообщениям
    Вы можете скачивать файлы