Доктор Стрэндж

Лицензия

Добыча

Дубляж

Дом дракона

1 сезон

Тор

Дубляж

В эфире

Дубляж

Там, где раки поют

MVO

Властелин колец

1 сезон

Ultimate

pack

Рекомендуем

30

Пиратка

ВАЖНО

ВАЖНО

Ghostwire

Пиратка

jed

RePack

nioh2

RePack

RDR2

RePack

NEED FOR SPEED™ PAYBACK

RePack

скачать торрент

Кинопоиск HD

Острые козырьки 6 сезон

6 сезон

FAR CRY 6

RePack

скачать торрент

Лицензия

скачать торрент

MVO

1

1 сезон

скачать торрент

1 сезон

скачать торрент

Лицензия

  

Однажды в… Голливуде / Once Upon a Time ... in Hollywood (Квентин Тарантино) [2019, драма, комедия, WEB-DLRip-AVC] Дубляж [iTunes]

Однажды в… Голливуде через торрент piratbit.org

Размер: 2.43 GB | Добавлен: 3 года назад | Торрент скачан:776 раз
Смотреть онлайн | Скачать   

24-11-2019 21:20 Однажды в… Голливуде Скачать торрент  

Однажды в… Голливуде / Once Upon a Time ... in Hollywood«The 9th Film from Quentin Tarantino»
Год выпуска: 2019
Страна: Великобритания, США, Китай
Студия: Bona Film Group, Heyday Films, Sony Pictures Entertainment
Жанр: драма, комедия
Продолжительность: 02:41:29
Перевод: Дублированный | iTunes
Субтитры: Русские (форс., полные)

Режиссер: Квентин Тарантино

rating

В ролях: Брэд Питт, Леонардо ДиКаприо, Марго Робби, Майя Хоук, Остин Роберт Батлер, Сидни Свини, Маргарет Куэлли, Дакота Фэннинг, Тимоти Олифант, Аль Пачино, Эмиль Хирш, Джулия Баттерз, Брюс Дерн

Описание: Фильм повествует о череде событий, произошедших в Голливуде в 1969 году, на закате его «золотого века». По сюжету, известный ТВ актер Рик Далтон и его дублер Клифф Бут пытаются найти свое место в стремительно меняющемся мире киноиндустрии.

Качество: WEB-DLRip-AVC
Формат: MKV

Видео: 1024x426 (2.40:1), 23,976 fps, x264 ~1 769 kbps avg, 0.169 bit/pixel
Аудио: 48 kHz, AC3 Dolby Digital, 3/2 (L,C,R,l,r) + LFE ch, ~384.00 kbps avg | RUS (iTunes)
скриншот  скриншот  скриншот  скриншот  

Общее
Уникальный идентификатор : 144723168650684924338433034481745949721 (0x6CE0AB1D4070AFF8F1EDBF7AE37E7419)
Полное имя : F:OlLanDGroupOnce.Upon.a.Time.in.Hollywood.2019.AMZN.WEB-DLRip(AVC).OlLanDGroup.mkv
Формат : Matroska
Версия формата : Version 4 / Version 2
Размер файла : 2,43 Гбайт
Продолжительность : 2 ч. 41 м.
Общий поток : 2155 Кбит/сек
Название фильма : Once.Upon.a.Time.in.Hollywood.2019 #TorpedoUK#
Дата кодирования : UTC 2019-11-24 20:57:01
Программа кодирования : mkvmerge v29.0.0 ('Like It Or Not') 64-bit
Библиотека кодирования : libebml v1.3.6 + libmatroska v1.4.9
Обложка : Yes
Attachments : cover.png

Видео
Идентификатор : 1
Формат : AVC
Формат/Информация : Advanced Video Codec
Профиль формата : High@L4.1
Параметр CABAC формата : Да
Параметр ReFrames формата : 10 кадров
Идентификатор кодека : V_MPEG4/ISO/AVC
Продолжительность : 2 ч. 41 м.
Битрейт : 1769 Кбит/сек
Ширина : 1024 пикселя
Высота : 426 пикселей
Соотношение сторон : 2,40:1
Режим частоты кадров : Постоянный
Частота кадров : 23,976 (24000/1001) кадра/сек
Цветовое пространство : YUV
Субдискретизация насыщенности : 4:2:0
Битовая глубина : 8 бит
Тип развёртки : Прогрессивная
Бит/(Пиксели*Кадры) : 0.169
Размер потока : 1,99 Гбайт (82%)
Библиотека кодирования : x264 core 146 r2538 121396c
Настройки программы : cabac=1 / ref=10 / deblock=1:-2:-3 / analyse=0x3:0x113 / me=umh / subme=11 / psy=1 / psy_rd=0.90:0.10 / mixed_ref=1 / me_range=48 / chroma_me=1 / trellis=2 / 8x8dct=1 / cqm=0 / deadzone=21,11 / fast_pskip=1 / chroma_qp_offset=-6 / threads=6 / lookahead_threads=1 / sliced_threads=0 / nr=0 / decimate=1 / interlaced=0 / bluray_compat=0 / constrained_intra=0 / bframes=11 / b_pyramid=2 / b_adapt=2 / b_bias=0 / direct=3 / weightb=1 / open_gop=0 / weightp=2 / keyint=240 / keyint_min=23 / scenecut=40 / intra_refresh=0 / rc_lookahead=40 / rc=2pass / mbtree=0 / bitrate=1769 / ratetol=1.0 / qcomp=0.60 / qpmin=0 / qpmax=69 / qpstep=4 / cplxblur=20.0 / qblur=0.5 / vbv_maxrate=50000 / vbv_bufsize=62500 / nal_hrd=none / filler=0 / ip_ratio=1.40 / pb_ratio=1.30 / aq=1:1.00
Язык : English
Default : Да
Forced : Нет

Аудио
Идентификатор : 2
Формат : AC-3
Формат/Информация : Audio Coding 3
Расширение режима : CM (complete main)
Параметр Endianness формата : Big
Идентификатор кодека : A_AC3
Продолжительность : 2 ч. 41 м.
Вид битрейта : Постоянный
Битрейт : 384 Кбит/сек
Каналы : 6 каналов
Расположение каналов : Front: L C R, Side: L R, LFE
Частота : 48,0 КГц
Частота кадров : 31,250 кадров/сек (1536 spf)
Битовая глубина : 16 бит
Метод сжатия : С потерями
Размер потока : 443 Мбайт (18%)
Заголовок : Дубляж [iTunes]
Язык : Russian
Default : Да
Forced : Нет

Текст #1
Идентификатор : 3
Формат : UTF-8
Идентификатор кодека : S_TEXT/UTF8
Идентификатор кодека/Информация : UTF-8 Plain Text
Продолжительность : 2 ч. 36 м.
Битрейт : 0 бит/сек
Count of elements : 16
Размер потока : 598 байт (0%)
Заголовок : Forced
Язык : Russian
Default : Да
Forced : Нет

Текст #2
Идентификатор : 4
Формат : UTF-8
Идентификатор кодека : S_TEXT/UTF8
Идентификатор кодека/Информация : UTF-8 Plain Text
Продолжительность : 2 ч. 40 м.
Битрейт : 75 бит/сек
Count of elements : 1766
Размер потока : 88,7 Кбайт (0%)
Заголовок : Full
Язык : Russian
Default : Нет
Forced : Нет

Меню
00:00:00.000 : en:1
00:04:49.415 : en:2
00:13:45.200 : en:3
00:18:29.150 : en:4
00:22:00.319 : en:5
00:25:59.349 : en:6
00:28:41.094 : en:7
00:33:45.106 : en:8
00:40:19.333 : en:9
00:49:59.454 : en:10
00:51:48.688 : en:11
00:59:52.254 : en:12
01:02:32.872 : en:13
01:04:28.612 : en:14
01:09:16.733 : en:15
01:17:40.778 : en:16
01:20:25.776 : en:17
01:26:28.430 : en:18
01:32:54.441 : en:19
01:39:58.490 : en:20
01:47:55.216 : en:21
01:53:00.229 : en:22
01:58:09.538 : en:23
02:06:23.990 : en:24
02:11:22.955 : en:25
02:15:50.097 : en:26
02:21:30.187 : en:27
02:29:50.729 : en:28
02:36:28.251 : en:29
02:38:51.227 : en:30




Скачать Однажды в… Голливуде через торрент https://a.radikal.ru/a41/1911/08/382c5db77f0d.jpg Скачать, смотреть онлайн Однажды в… Голливуде бесплантно в хорошем качестве Описание: Фильм повествует о череде событий, произошедших в Голливуде в 1969 году, на закате его «золотого века». По сюжету, известный ТВ ... 9.9 10 21
Info! Золотая раздача, скачанное не засчитывается.
Торрент: Зарегистрирован [2019-11-24 21:20] · скачан: 776 раз
Статус: √ проверено
Размер: 2.43 GB
Как cкачать? Как скачать Однажды в… Голливуде через торрент | UTorrent

% Раздел Тема Автор DL S | L
Разное [ 591 MB ] Квентин Тарантино - Однажды в Голливуде [Всеволод Кузнецов, 2021, 128 kbps, MP3 | | Квентин Тарантино - Однажды в Голливуде [Всеволод Кузнецов, 2021, 128 kbps, MP3 bober100 Скачать
1 | 0
Фильмы 2019-2020 [DVDrip, WEB-DLRip, HDrip] (DUB, MVO) [ 3.43 GB ] Однажды в… Голливуде / Once Upon a Time ... in Hollywood | Лицензия | BDRip-AVC Enigma2010 Скачать
6 | 0
Фильмы [HD 720p, 1080p] (Хороший звук DUB, MVO) [ 7.48 GB ] Однажды в… Голливуде / Once Upon a Time ... in Hollywood | Лицензия | 720p, Дубляж Лицензия, AVO morfyi Скачать
1 | 0
Фильмы 2019-2020 [DVDrip, WEB-DLRip, HDrip] (DUB, MVO) [ 1.46 GB ] Однажды в… Голливуде / Once Upon a Time ... in Hollywood | Лицензия | BDRip Twi7ter Скачать
7 | 0
Фильмы 2019-2020 [DVDrip, WEB-DLRip, HDrip] (DUB, MVO) [ 2.18 GB ] Однажды в… Голливуде / Once Upon a Time ... in Hollywood | Лицензия | BDRip Twi7ter Скачать
54 | 1
Фильмы с авторской озвучкой [ 2.18 GB ] Однажды в… Голливуде / Once Upon a Time ... in Hollywood | AVO | HDRip killermax2013 Скачать
1 | 0
Фильмы 2019-2020 [DVDrip, WEB-DLRip, HDrip] (DUB, MVO) [ 3.2 GB ] Однажды в… Голливуде / Once Upon a Time ... in Hollywood | iTunes | DLRip-AVC Enigma2010 Скачать
4 | 0

28-11-2019 20:33  


Отключить вcю реклaмy на сайте, в т.ч. и в плеере онлайн просмотра!

26-11-2019 19:52 Однажды в… Голливуде Скачать торрент  

Смотрел все лучшие хиты Тарантино по несколько раз, но этот хватило и одного, понравились только последние десять минут фильма, очень слабая и проходная картина.



    Дорогой пользователь! Огромная просьба, поблагодарите релизера, оцените раздачу и оставьте свои комментарий, если Вы скачали Однажды в… Голливуде через торрент бесплатно!!
    Комментировать посты могут только пользователи прошедшие не сложную регистрацию
    Показать сообщения:    


    Однажды в… Голливуде через торрент
    Скачать бесплатно Однажды в… Голливуде
    Однажды в… Голливуде скачать торрент
    Однажды в… Голливуде смотреть онлайн
    Cкачать фильм Однажды в… Голливуде бесплатно
    Однажды в… Голливуде скачать торрент в хорошем качестве
    Однажды в… Голливуде смотреть онлайн бесплатно в хорошем качестве
    Вы не можете начинать темы
    Вы не можете отвечать на сообщения
    Вы не можете редактировать свои сообщения
    Вы не можете удалять свои сообщения
    Вы не можете голосовать в опросах
    Вы не можете прикреплять файлы к сообщениям
    Вы можете скачивать файлы
    Однажды в… Голливуде / Once Upon a Time ... in Hollywood [2019, драма, комедия, WEB-DLRip-AVC] Дубляж [iTunes] смотреть онлайн, скачать торрент picoco.icu