2 сезон

iTunes

1 сезон

1

iTunes

iTunes

iTunes

1 сезон

RePack

30

ИГРА 18+

pack

ВАЖНО

!!Акция!!

Alien_RageХит недели

RePack

MK11
pack

Забери бонус

RePack

jed

!!Акция!!

Alien_Rage

RePack

fifa19

RePack

Assassins Creed: Odyssey

RePack

NEED FOR SPEED™ PAYBACK

4 сезон

9 сезон

Бесстыжие 9 сезон

Все сериалы

все сериалы на PB.wtf

RePack

FAR CRY 5
  

Барон де Л'Эклюз / Le Baron de l'ecluse(Жан Деланнуа) [1960, комедия, BDRip (AVC) by msltel] MVO piratbit.org

Барон де Л'Эклюз через торрент piratbit.org

Размер: 2.1 GB | Добавлен: 11 мес. назад | Торрент скачан:1 раз
Скачать  

26-11-2019 08:34 Барон де Л'Эклюз Скачать торрент  

Название: Барон де Л'Эклюз
Оригинальное название: Le Baron de l'ecluse
Год выпуска: 1960
Страна: Франция, Италия
Жанр: комедия
Продолжительность: 01:33:47
Перевод: рофессиональный многоголосый

Режиссер: Жан Деланнуа
В ролях: Жан Габен, Мишелин Прель, Жак Кастело, Эме Мортимер, Жан Константен, Робер Дальбан, Жак Хиллинг, Александр Риньо

О фильме: Герой войны 14-го года разорённый барон Жером Наполеон Антуан ведёт роскошную жизнь, благодаря своим обширным связям. Он много играет и много проигрывает. Однажды ему улыбается удача: во время игры в карты с маркизом Вилламайором он выигрывает одиннадцать миллионов и, в качестве аванса, получает яхту. Вместе с Перл, бывшей любовницей, они отправляются в путь. Однако из-за нехватки денег им приходится на некоторое время задержаться на одном из шлюзов...



Качество: BDRip (AVC)
Формат: MKV
Видео: MPEG-4 AVC, 2819 Kбит/с, 960x576, 24 Кадр/с
Аудио 1: русский, AC3, 192 kbps, 2 ch, 48 kHz [закадровый многоголосый]
Аудио 2: французский, AC3, 192 kbps, 2 ch, 48 kHz [оригинал]
Главы/чаптеры
Общее
Уникальный идентификатор : 247106792512197228022017002197026604722 (0xB9E70980705D37279815430A084406B2)
Полное имя : D:\Video\Барон де Леклюз.1960.BDRip (AVC) by msltel.mkv
Формат : Matroska
Версия формата : Version 4
Размер файла : 2,10 Гбайт
Продолжительность : 1 ч. 33 м.
Общий поток : 3205 Кбит/сек
Название фильма : Rip by msltel
Дата кодирования : UTC 2019-11-26 02:16:11
Программа кодирования : mkvmerge v8.2.0 ('World of Adventure') 64bit
Библиотека кодирования : libebml v1.3.1 + libmatroska v1.4.2

Видео
Идентификатор : 1
Формат : AVC
Формат/Информация : Advanced Video Codec
Профиль формата : High@L4.1
Настройки формата : CABAC / 9 Ref Frames
Параметр CABAC формата : Да
Параметр RefFrames формата : 9 кадров
Идентификатор кодека : V_MPEG4/ISO/AVC
Продолжительность : 1 ч. 33 м.
Битрейт : 2819 Кбит/сек
Ширина : 960 пикселей
Высота : 576 пикселей
Соотношение сторон : 5:3
Режим частоты кадров : Постоянный
Частота кадров : 24,000 кадра/сек
Цветовое пространство : YUV
Субдискретизация насыщенности : 4:2:0
Битовая глубина : 8 бит
Тип развёртки : Прогрессивная
Бит/(Пиксели*Кадры) : 0.212
Размер потока : 1,85 Гбайт (88%)
Библиотека кодирования : x264 core 157 r2935 545de2f
Настройки программы : cabac=1 / ref=9 / deblock=1:-2:-2 / analyse=0x3:0x113 / me=umh / subme=11 / psy=1 / psy_rd=1.00:0.15 / mixed_ref=1 / me_range=32 / chroma_me=1 / trellis=2 / 8x8dct=1 / cqm=0 / deadzone=21,11 / fast_pskip=0 / chroma_qp_offset=-3 / threads=6 / lookahead_threads=1 / sliced_threads=0 / nr=0 / decimate=1 / interlaced=0 / bluray_compat=0 / constrained_intra=0 / bframes=8 / b_pyramid=2 / b_adapt=2 / b_bias=0 / direct=1 / weightb=1 / open_gop=0 / weightp=2 / keyint=230 / keyint_min=23 / scenecut=40 / intra_refresh=0 / rc_lookahead=40 / rc=crf / mbtree=1 / crf=19.0 / qcomp=0.60 / qpmin=0 / qpmax=69 / qpstep=4 / vbv_maxrate=50000 / vbv_bufsize=62500 / crf_max=0.0 / nal_hrd=none / filler=0 / ip_ratio=1.40 / aq=1:1.00
Язык : French
Default : Да
Forced : Нет

Аудио #1
Идентификатор : 2
Формат : AC-3
Формат/Информация : Audio Coding 3
Коммерческое название : Dolby Digital
Идентификатор кодека : A_AC3
Продолжительность : 1 ч. 33 м.
Вид битрейта : Постоянный
Битрейт : 192 Кбит/сек
Каналы : 2 канала
ChannelLayout : L R
Частота : 48,0 КГц
Частота кадров : 31,250 кадров/сек (1536 SPF)
Метод сжатия : С потерями
Размер потока : 129 Мбайт (6%)
Заголовок : MVO
Язык : Russian
ServiceKind/String : Complete Main
Default : Да
Forced : Нет

Аудио #2
Идентификатор : 3
Формат : AC-3
Формат/Информация : Audio Coding 3
Коммерческое название : Dolby Digital
Идентификатор кодека : A_AC3
Продолжительность : 1 ч. 33 м.
Вид битрейта : Постоянный
Битрейт : 192 Кбит/сек
Каналы : 2 канала
ChannelLayout : L R
Частота : 48,0 КГц
Частота кадров : 31,250 кадров/сек (1536 SPF)
Метод сжатия : С потерями
Размер потока : 129 Мбайт (6%)
Заголовок : original
Язык : French
ServiceKind/String : Complete Main
Default : Нет
Forced : Нет

Меню
00:00:00.000 : :Глава 01
00:12:02.333 : :Глава 02
00:18:55.708 : :Глава 03
00:28:10.500 : :Глава 04
00:37:34.833 : :Глава 05
00:52:24.166 : :Глава 06
01:09:36.250 : :Глава 07
01:20:52.625 : :Глава 08
piratbit.org



Скачать Барон де Л'Эклюз через торрент https://b.radikal.ru/b08/1911/14/5e2e36419597.jpg Скачать фильм Барон де Л'Эклюз через торрент бесплантно в хорошем качестве О фильме: Герой войны 14-го года разорённый барон Жером Наполеон Антуан ведёт роскошную жизнь, благодаря своим обширным связям. Он много ... 10 10 1
Торрент: Зарегистрирован [2019-11-26 08:34] · скачан: 1 раз
Статус: √ проверено
Размер: 2.1 GB
Как cкачать? Как скачать Барон де Л'Эклюз через торрент | qTorrent

28-11-2019 20:33  

Отключить всю рекламу на сайте

    Дорогой пользователь! Огромная просьба, поблагодарите релизера, оцените раздачу и оставьте свои комментарий, если Вы скачали Барон де Л'Эклюз через торрент бесплатно! Внесите свою лепту в развитие PiratBit!
    Комментировать посты могут только пользователи прошедшие не сложную регистрацию
    Показать сообщения:    

    Барон де Л'Эклюз через торрент
    Скачать бесплатно Барон де Л'Эклюз
    Барон де Л'Эклюз скачать торрент
    Барон де Л'Эклюз смотреть онлайн
    Cкачать фильм Барон де Л'Эклюз бесплатно
    Барон де Л'Эклюз скачать торрент в хорошем качестве
    Барон де Л'Эклюз смотреть онлайн бесплатно в хорошем качестве


    Вы не можете начинать темы
    Вы не можете отвечать на сообщения
    Вы не можете редактировать свои сообщения
    Вы не можете удалять свои сообщения
    Вы не можете голосовать в опросах
    Вы не можете прикреплять файлы к сообщениям
    Вы можете скачивать файлы