новый адрес
Ссылка на приватное зеркало всего за 1$. Внимание количество ограничено!!!

iTunes

1+1

iTunes

мы

WEB-DL

1

iTunes

Чернобыль

iTunes

Ральф против интернета

Лицензия

ПШазам

Лицензия

Оно 2

Лицензия

30
pack

Вам бонус

ВАЖНО

!!Акция!!

Alien_RageХит недели

RePack

Resident Evil 21

ИГРА 18+

pack

RePack

jed

!!Акция!!

Alien_Rage

RePack

fifa19

RePack

Assassins Creed: Odyssey

RePack

NEED FOR SPEED™ PAYBACK

3 сезон

9 сезон

Бесстыжие 9 сезон

Все сериалы

все сериалы на PB.wtf

RePack

FAR CRY 5
Ребята, катастрофически не хватает 1900р. для оплаты серверов за Октябрь (всвязи с блокировками трафик упал в 3 раза), 1-2р., выручайте.
  

Британия / Britannia / Сезон: 2 / Серии: 1-10 из 10 (Люк Уотсон, Роб Сэвадж, Шери Фоксон) [2019, Фэнтези, боевик, драма, WEB-DL 720p] [MVO] (AlexFilm) piratbit.org

Британия через торрент piratbit.org

Раздают: 3 [ 0 KB/s ] Качают: 1 [ 0 KB/s ]
Размер: 8.54 GB | Добавлен: 1 д. 2 ч. назад | Торрент скачан:6 раз
Скачать  

27-11-2019 08:50 Британия Скачать торрент  

Британия | Britannia
Год выпуска: 2019
Страна: Великобритания, США
Жанр: Фэнтези, боевик, драма
Продолжительность: ~ 00:42:00
Перевод: Профессиональный (многоголосый закадровый) | AlexFilm
Режиссёр: Люк Уотсон, Роб Сэвадж, Шери Фоксон
В ролях: Макензи Крук, Дэвид Моррисси, Николай Ли Каас, Элинор Уортингтон-Кокс, Джулиан Райнд-Татт, Лиана Корнелл, Анабель Шолей, Гершвин Эсташ мл., Хьюго Спир, Бэрри Уорд
Описание: События происходят в начале новой эры, когда Британия была населена воинственными кельтскими племенами, которые были не готовы перейти под управление иноземцев, пришедших с далекого юга. Во время римского вторжения Антедия объединяется с захватчиками, чтобы противостоять своему давнему врагу — Керре.
rating

Перевод: Мисс Джексон, Алиса Галланова и Александр Лазарев
Монтаж и сведение звука: Михаил Шорыгин, Михаил Суслов
Роли озвучивали:

Маргарита Корш
Екатерина Муравицкая
Владимир Курдов
Кирилл Патрино
Константин Федосеев
Михаил Суслов


Качество: WEB-DL 720p
Формат: MKV
Видео: H.264, 1280х720 (16:9), 25 fps, MPEG-4 AVC 3400 kbps avg, 0.149 bit/pixel
Аудио Rus: 48 kHz, AC3 Dolby Digital, 3/2 (L,C,R,l,r) + LFE ch, ~384.00 kbps
Аудио ENg: 48 kHz, AC3 Dolby Digital, 3/2 (L,C,R,l,r) + LFE ch, ~384.00 kbps
General
Unique ID : 173844136667746575676514750183656953651 (0x82C929B04E2ADF2F9F14D6C744609733)
Complete name : E:\Britannia - Season 2 (AlexFilm) WEB-DL 720p\Britannia.s02e01.WEB-DL.720p.Rus.Eng.AlexFilm.mkv
Format : Matroska
Format version : Version 4 / Version 2
File size : 862 MiB
Duration : 42 min 4 s
Overall bit rate mode : Variable
Overall bit rate : 2 865 kb/s
Movie name : Britannia 2x01 @ AlexFilm
Encoded date : UTC 2019-11-26 16:53:54
Writing application : mkvmerge v7.9.0 ('Birds') 64bit
Writing library : libebml v1.3.1 + libmatroska v1.4.2

Video
ID : 1
Format : AVC
Format/Info : Advanced Video Codec
Format profile : Main@L3.1
Format settings : CABAC / 4 Ref Frames
Format settings, CABAC : Yes
Format settings, RefFrames : 4 frames
Codec ID : V_MPEG4/ISO/AVC
Duration : 42 min 4 s
Bit rate mode : Variable
Bit rate : 2 040 kb/s
Maximum bit rate : 3 300 kb/s
Width : 1 280 pixels
Height : 720 pixels
Display aspect ratio : 16:9
Frame rate mode : Constant
Frame rate : 25.000 FPS
Color space : YUV
Chroma subsampling : 4:2:0
Bit depth : 8 bits
Scan type : Progressive
Bits/(Pixel*Frame) : 0.089
Stream size : 614 MiB (71%)
Default : Yes
Forced : No

Audio #1
ID : 2
Format : AC-3
Format/Info : Audio Coding 3
Format settings, Endianness : Big
Codec ID : A_AC3
Duration : 42 min 4 s
Bit rate mode : Constant
Bit rate : 384 kb/s
Channel(s) : 6 channels
Channel positions : Front: L C R, Side: L R, LFE
Sampling rate : 48.0 kHz
Frame rate : 31.250 FPS (1536 SPF)
Bit depth : 16 bits
Compression mode : Lossy
Stream size : 116 MiB (13%)
Title : DD5.1 AlexFilm
Language : Russian
Service kind : Complete Main
Default : Yes
Forced : No

Audio #2
ID : 3
Format : AC-3
Format/Info : Audio Coding 3
Format settings, Endianness : Big
Codec ID : A_AC3
Duration : 42 min 4 s
Bit rate mode : Constant
Bit rate : 384 kb/s
Channel(s) : 6 channels
Channel positions : Front: L C R, Side: L R, LFE
Sampling rate : 48.0 kHz
Frame rate : 31.250 FPS (1536 SPF)
Bit depth : 16 bits
Compression mode : Lossy
Stream size : 116 MiB (13%)
Title : DD5.1 Original
Language : English
Service kind : Complete Main
Default : No
Forced : No

скриншот  скриншот  скриншот  

Внимание! Раздача ведётся путём добавления новых серий; при каждом добавлении создаётся новый торрент. Чтобы начать докачку новой серии, пользователям необходимо сделать следующее:
(1) остановить скачивание,
(2) удалить старый торрент у себя из клиента (старые серии удалять не надо),
(3) скачать новый торрент и запустить его у себя в клиенте вместо старого, при этом указать клиенту путь в старую папку куда и должно происходить скачивание новых серий.

Ваш клиент при этом должен произвести хеширование (проверку) старой папки (если не производит сам - помогите ему сделать это), и будет докачивать только те серии которых у вас ещё нет. Старые серии при этом не удаляются, а продолжают раздаваться!

Eсли вы уже удалили старые серии, то предотвратить повторную закачку старых серий можно, отжав галочку в соответствующих местах при запуске нового торрента. По возможности, желательно не удалять старые серии как можно дольше чтобы релизёр не столько продолжал раздавать старые серии, а смог сконцентрироваться на новых.

piratbit.org



Скачать Британия через торрент https://d.radikal.ru/d17/1911/6f/53373d85d858.jpg Скачать фильм Британия через торрент бесплантно в хорошем качестве Описание: События происходят в начале новой эры, когда Британия была населена воинственными кельтскими племенами, которые были не готовы ... 8 10 3
Торрент: Зарегистрирован [2019-12-05 19:46] · скачан: 6 раз
Статус: √ проверено
Размер: 8.54 GB
Как cкачать? Как скачать Британия через торрент | qTorrent

% Раздел Тема Автор DL S | L
Зарубежные сериалы [ 7.11 GB ] Британия / Britannia / Сезон: 2 / Серии: 1-10 из 10 [2019 WEB-DLRip] MVO [TVShows] bober100 Скачать
3 | 0
Зарубежные сериалы [ 5.94 GB ] Британия / Britannia / Сезон: 2 / Серии: 1-10 из 10 [2019 WEB-DLRip] [MVO] killermax2013 Скачать
3 | 0
Зарубежные сериалы [ 9.59 GB ] Британия / Britannia / Сезон: 2 / Серии: 1-10 из 10 [2019 WEB-DL 720p] MVO [TVShows] bober100 Скачать
1 | 0
Зарубежные сериалы [ 12.24 GB ] Британия / Britannia / Сезон: 2 / Серии: 1-10 из 10 [2019 WEB-DL 1080p] MVO [TVShows] bober100 Скачать
3 | 1

28-11-2019 20:33  

Отключить всю рекламу на сайте

    Дорогой пользователь! Огромная просьба, поблагодарите релизера, оцените раздачу и оставьте свои комментарий, если Вы скачали Британия через торрент бесплатно! Внесите свою лепту в развитие PiratBit!
    Комментировать посты могут только пользователи прошедшие не сложную регистрацию
    Показать сообщения:    

    Британия через торрент
    Скачать бесплатно Британия
    Британия скачать торрент
    Британия смотреть онлайн
    Cкачать фильм Британия бесплатно
    Британия скачать торрент в хорошем качестве
    Британия смотреть онлайн бесплатно в хорошем качестве


    Вы не можете начинать темы
    Вы не можете отвечать на сообщения
    Вы не можете редактировать свои сообщения
    Вы не можете удалять свои сообщения
    Вы не можете голосовать в опросах
    Вы не можете прикреплять файлы к сообщениям
    Вы можете скачивать файлы