Лицензия

MVO

1

1 сезон

Лицензия

Лицензия

13

MVO

1 сезон

Deluxe Edition

pack

Рекомендуем

30

Repack

ВАЖНО

ВАЖНО

Ghostwire

RePack

jed

RePack

fifa19

RePack

RDR2

RePack

NEED FOR SPEED™ PAYBACK

RePack

Кинопоиск HD

 Острые козырьки 6 сезон

6 сезон

FAR CRY 6

RePack

Лицензия

MVO

1

1 сезон

1 сезон

Лицензия

  

Дальние страны (Мария Федорова) [1964, СССР, приключения, семейный, VHSRip от AVP Studio]

Дальние страны через торрент piratbit.org

Качают: 2 [ 0 KB/s ]
Размер: 745 MB | Добавлен: 2 года 10 мес. назад | Торрент скачан:16 раз
Смотреть онлайн Дальние страны | Скачать   

27-11-2019 09:34 Дальние страны Скачать торрент  

Дальние страны
Страна: СССР
Производство: Центральная студия детских и юношеских фильмов им. Горького

Жанр: приключения, семейный
Год выпуска: 1964
Продолжительность: 01:18:40

Перевод: Не требуется
Cубтитры: нет
Оригинальная аудиодорожка: русский

Режиссер: Мария Федорова

В ролях:
Костя Захаров, Саша Гуров, Сережа Павлихин, Ира Гомозова, Лена Толгская, Андрюша Пронин, Николай Смирнов, Владимир Фролов, Вячеслав Подвиг, Людмила Гнилова, Мария Кремнёва, Николай Романов, Виктор Маркин, Владимир Прокофьев, Константин Максимов, Анатолий Кубацкий, Вадим Захарченко, М. Синицын, Борис Кордунов, Андрюша Загорский...
Об актёрах подробней

Описание:
На Западный Урал, в один большой посёлок, имеющий промышленное значение, приезжает полковник авиации. Он вспоминает, как в начале 1930-х годов босоногим мальчишкой бегал здесь со своим дружком. Тогда тут был лишь небольшой разъезд и маленькая деревня. О том, как они здесь жили и учились, как стали активными строителями новой жизни, как мечтали повидать разные страны, как вдали от родины мужественно сражались с нацистами.

Исходник: VHS
Качество видео: VHSRip
Формат видео: AVI

Видео: 704x320 (2,2:1), 25,000 кадров/сек, XviD ~ 1123 kbps avg, 0.199 bit/pixel
Аудио: 48 kHz, Dolby Digital AC3 2.0, 192 kbps

Раздача от:
Общее
Полное имя : Dalnie.strany.1964.VHSRip_[New-team]_by_AVP_Studio.avi
Формат : AVI
Формат/Информация : Audio Video Interleave
Размер файла : 745 Мбайт
Продолжительность : 1 ч. 18 м.
Общий поток : 1325 Кбит/сек
Программа кодирования : VirtualDubMod 1.5.10.3 | www.virtualdub-fr.org || (build 2550/release)
Библиотека кодирования : VirtualDubMod build 2550/release

Видео
Идентификатор : 0
Формат : MPEG-4 Visual
Профиль формата : Advanced Simple@L5
Настройки формата : BVOP1 / Custom Matrix
Параметр BVOP формата : 1
Параметр QPel формата : Нет
Параметр GMC формата : Без точки перехода
Параметр матрицы формата : Выборочная
Идентификатор кодека : XVID
Идентификатор кодека/Подсказка : XviD
Продолжительность : 1 ч. 18 м.
Битрейт : 1123 Кбит/сек
Ширина : 704 пикселя
Высота : 320 пикселей
Соотношение сторон : 2,2:1
Частота кадров : 25,000 кадров/сек
Цветовое пространство : YUV
Субдискретизация насыщенности : 4:2:0
Битовая глубина : 8 бит
Тип развёртки : Прогрессивная
Метод сжатия : С потерями
Бит/(Пиксели*Кадры) : 0.199
Размер потока : 632 Мбайт (85%)
Библиотека кодирования : XviD 73

Аудио
Идентификатор : 1
Формат : AC-3
Формат/Информация : Audio Coding 3
Коммерческое название : Dolby Digital
Идентификатор кодека : 2000
Продолжительность : 1 ч. 18 м.
Вид битрейта : Постоянный
Битрейт : 192 Кбит/сек
Каналы : 2 канала
ChannelLayout : L R
Частота : 48,0 КГц
Частота кадров : 31,250 кадров/сек (1536 SPF)
Битовая глубина : 16 бит
Метод сжатия : С потерями
Размер потока : 108 Мбайт (14%)
Выравнивание : Разделение по промежуткам
Продолжительность промежутка : 40 мс. (1,00 видеокадр)
Время предзагрузки промежутка : 500 мс



Скачать Дальние страны через торрент http://b.radikal.ru/b09/1911/35/8a427b8067ac.png Скачать, смотреть онлайн Дальние страны бесплантно в хорошем качестве Описание:На Западный Урал, в один большой посёлок, имеющий промышленное значение, приезжает полковник авиации. Он вспоминает, как в начале ... 5 10 1
Торрент: Зарегистрирован [2019-11-27 09:34] · скачан: 16 раз
Статус: √ проверено
Размер: 745 MB
Как cкачать? Как скачать Дальние страны через торрент | UTorrent

% Раздел Тема Автор DL S | L
Кино СССР [ 744 MB ] Дальние страны | | Дальние страны (Мария Федорова AVP Studio Скачать
2 | 0

28-11-2019 20:33  

Отключить вcю реклaмy на сайте

    Дорогой пользователь! Огромная просьба, поблагодарите релизера, оцените раздачу и оставьте свои комментарий, если Вы скачали Дальние страны через торрент бесплатно!!
    Комментировать посты могут только пользователи прошедшие не сложную регистрацию
    Показать сообщения:    


    Дальние страны через торрент
    Скачать бесплатно Дальние страны
    Дальние страны скачать торрент
    Дальние страны смотреть онлайн
    Cкачать фильм Дальние страны бесплатно
    Дальние страны скачать торрент в хорошем качестве
    Дальние страны смотреть онлайн бесплатно в хорошем качестве
    Вы не можете начинать темы
    Вы не можете отвечать на сообщения
    Вы не можете редактировать свои сообщения
    Вы не можете удалять свои сообщения
    Вы не можете голосовать в опросах
    Вы не можете прикреплять файлы к сообщениям
    Вы можете скачивать файлы