новый адрес
Ссылка на приватное зеркало всего за 1$. Внимание количество ограничено!!!

iTunes

1+1

iTunes

мы

WEB-DL

1

iTunes

Чернобыль

iTunes

Ральф против интернета

Лицензия

ПШазам

Лицензия

Оно 2

Лицензия

30
pack

Вам бонус

ВАЖНО

!!Акция!!

Alien_RageХит недели

RePack

Resident Evil 21

ИГРА 18+

pack

RePack

jed

!!Акция!!

Alien_Rage

RePack

fifa19

RePack

Assassins Creed: Odyssey

RePack

NEED FOR SPEED™ PAYBACK

3 сезон

9 сезон

Бесстыжие 9 сезон

Все сериалы

все сериалы на PB.wtf

RePack

FAR CRY 5
Ребята, катастрофически не хватает 1900р. для оплаты серверов за Октябрь (всвязи с блокировками трафик упал в 3 раза), 1-2р., выручайте.
  

Крёстный отец Гарлема / Godfather of Harlem / Сезон: 1 / Серии: 1-7 из 10 (Джон Ридли / John Ridley) [2019, Драма, криминал, WEB-DLRip] [MVO] (NewStudio) piratbit.org

Крёстный отец Гарлема через торрент piratbit.org

Качают: 1 [ 0 KB/s ]
Размер: 5.28 GB | Добавлен: 2 д. 2 ч. назад | Торрент скачан:2 раза
Скачать  

27-11-2019 15:01 Крёстный отец Гарлема Скачать торрент  

Крёстный отец Гарлема | Godfather of Harlem
Год выпуска: 2019
Страна: США
Жанр: Драма, криминал
Продолжительность: ~ 00:56:00
Перевод: Профессиональный (многоголосый закадровый) | NewStudio
Режиссёр: Джон Ридли / John Ridley
В ролях: Люси Фрай, Форест Уитакер, Дэми Синглтон, Серин Браун, Джамал Бёрчер, Антаунетте Кроу-Легаси, Винсент Д`Онофрио, Джанкарло Эспозито, Ильфенеш Хадера, Келвин Харрисон
Описание: Криминальный босс Бампи Джонсон руководит торговлей наркотиками, подпольными казино и проституцией в Гарлеме.

Качество: WEB-DLRip
Формат: AVI
Видео: XviD, 720x400 (16:9), 23.976 кадров/сек, 1600 Кбит/сек
Аудио Rus: AC3, 48,0 kHz, 2 ch, 192 Кбит/сек | NewStudio
Аудио Eng: AC3, 48,0 kHz, 2 ch, 192 Кбит/сек
Субтитры: Русские (Форсированные), английские
Реклама: Отсутствует
Общее
Полное имя : E:\Godfather of Harlem (Season 1) WEB-DLRip\Godfather.of.Harlem.S01E01.WEB-DLRip.RGzsRutracker.[Wentworth_Miller].avi
Формат : AVI
Формат/Информация : Audio Video Interleave
Размер файла : 851 Мбайт
Продолжительность : 59 м. 31 с.
Общий поток : 1998 Кбит/сек
Программа кодирования : VirtualDubMod 1.5.10.3 | www.virtualdub-fr.org || (build 2550/release)
Библиотека кодирования : VirtualDubMod build 2550/release

Видео
Идентификатор : 0
Формат : MPEG-4 Visual
Профиль формата : Advanced Simple@L5
Настройки формата : BVOP1
Параметр BVOP формата : 1
Параметр QPel формата : Нет
Параметр GMC формата : Без точки перехода
Параметр матрицы формата : Default (MPEG)
Идентификатор кодека : XVID
Идентификатор кодека/Подсказка : XviD
Продолжительность : 59 м. 31 с.
Битрейт : 1600 Кбит/сек
Ширина : 720 пикселей
Высота : 400 пикселей
Соотношение сторон : 16:9
Частота кадров : 23,976 (24000/1001) кадра/сек
Цветовое пространство : YUV
Субдискретизация насыщенности : 4:2:0
Битовая глубина : 8 бит
Тип развёртки : Прогрессивная
Метод сжатия : С потерями
Бит/(Пиксели*Кадры) : 0.232
Размер потока : 681 Мбайт (80%)
Библиотека кодирования : XviD 67

Аудио #1
Идентификатор : 1
Формат : AC-3
Формат/Информация : Audio Coding 3
Коммерческое название : Dolby Digital
Идентификатор кодека : 2000
Продолжительность : 59 м. 31 с.
Вид битрейта : Постоянный
Битрейт : 192 Кбит/сек
Каналы : 2 канала
ChannelLayout : L R
Частота : 48,0 КГц
Частота кадров : 31,250 кадров/сек (1536 SPF)
Метод сжатия : С потерями
Размер потока : 81,8 Мбайт (10%)
Выравнивание : Разделение по промежуткам
Продолжительность промежутка : 42 мс. (1,00 видеокадр)
Время предзагрузки промежутка : 500 мс.
ServiceKind/String : Complete Main

Аудио #2
Идентификатор : 2
Формат : AC-3
Формат/Информация : Audio Coding 3
Коммерческое название : Dolby Digital
Идентификатор кодека : 2000
Продолжительность : 59 м. 31 с.
Вид битрейта : Постоянный
Битрейт : 192 Кбит/сек
Каналы : 2 канала
ChannelLayout : L R
Частота : 48,0 КГц
Частота кадров : 31,250 кадров/сек (1536 SPF)
Метод сжатия : С потерями
Размер потока : 81,8 Мбайт (10%)
Выравнивание : Разделение по промежуткам
Продолжительность промежутка : 42 мс. (1,00 видеокадр)
Время предзагрузки промежутка : 500 мс.
ServiceKind/String : Complete Main

скриншот  скриншот  скриншот  

Внимание! Раздача ведётся путём добавления новых серий; при каждом добавлении создаётся новый торрент. Чтобы начать докачку новой серии, пользователям необходимо сделать следующее:
(1) остановить скачивание,
(2) удалить старый торрент у себя из клиента (старые серии удалять не надо),
(3) скачать новый торрент и запустить его у себя в клиенте вместо старого, при этом указать клиенту путь в старую папку куда и должно происходить скачивание новых серий.

Ваш клиент при этом должен произвести хеширование (проверку) старой папки (если не производит сам - помогите ему сделать это), и будет докачивать только те серии которых у вас ещё нет. Старые серии при этом не удаляются, а продолжают раздаваться!

Eсли вы уже удалили старые серии, то предотвратить повторную закачку старых серий можно, отжав галочку в соответствующих местах при запуске нового торрента. По возможности, желательно не удалять старые серии как можно дольше чтобы релизёр не столько продолжал раздавать старые серии, а смог сконцентрироваться на новых.

piratbit.org



Скачать Крёстный отец Гарлема через торрент https://i86.fastpic.ru/big/2019/1003/5b/c2345af2c94066494f8efed686c2495b.png Скачать фильм Крёстный отец Гарлема через торрент бесплантно в хорошем качестве Описание: Криминальный босс Бампи Джонсон руководит торговлей наркотиками, подпольными казино и проституцией в Гарлеме. ... 10 10 1
Торрент: Зарегистрирован [2019-12-04 20:12] · скачан: 2 раз
Статус: √ проверено
Размер: 5.28 GB
Как cкачать? Как скачать Крёстный отец Гарлема через торрент | qTorrent

% Раздел Тема Автор DL S | L
Зарубежные сериалы [ 11.93 GB ] Крёстный отец Гарлема / Godfather of Harlem / Сезон: 1 / Серии: 1-7 из 10 [2019 WEB-DL 720p] [MVO] killermax2013 Скачать
1 | 2

28-11-2019 20:33  

Отключить всю рекламу на сайте

    Дорогой пользователь! Огромная просьба, поблагодарите релизера, оцените раздачу и оставьте свои комментарий, если Вы скачали Крёстный отец Гарлема через торрент бесплатно! Внесите свою лепту в развитие PiratBit!
    Комментировать посты могут только пользователи прошедшие не сложную регистрацию
    Показать сообщения:    

    Крёстный отец Гарлема через торрент
    Скачать бесплатно Крёстный отец Гарлема
    Крёстный отец Гарлема скачать торрент
    Крёстный отец Гарлема смотреть онлайн
    Cкачать фильм Крёстный отец Гарлема бесплатно
    Крёстный отец Гарлема скачать торрент в хорошем качестве
    Крёстный отец Гарлема смотреть онлайн бесплатно в хорошем качестве


    Вы не можете начинать темы
    Вы не можете отвечать на сообщения
    Вы не можете редактировать свои сообщения
    Вы не можете удалять свои сообщения
    Вы не можете голосовать в опросах
    Вы не можете прикреплять файлы к сообщениям
    Вы можете скачивать файлы