Ссылка на приватное зеркало нашего сайта всего за 1$. Внимание количество ограничено!!!

2 сезон

iTunes

1 сезон

1

iTunes

iTunes

iTunes

1 сезон

RePack

30

ИГРА 18+

pack

ВАЖНО

!!Акция!!

Alien_RageХит недели

RePack

MK11
pack

Забери бонус

RePack

jed

!!Акция!!

Alien_Rage

RePack

fifa19

RePack

Assassins Creed: Odyssey

RePack

NEED FOR SPEED™ PAYBACK

4 сезон

9 сезон

Бесстыжие 9 сезон

Все сериалы

все сериалы на PB.wtf

RePack

FAR CRY 5
  

Падший ангел / Fallen Angel (Отто Премингер) [1945, фильм-нуар, мелодрама, криминал, детектив, BDRip 1080p by msltel] MVO piratbit.org

Падший ангел через торрент piratbit.org

Размер: 8.09 GB | Добавлен: 10 мес. назад | Торрент скачан:2 раза
Скачать  

28-11-2019 05:28 Падший ангел Скачать торрент  

Название: Падший ангел
Оригинальное название: Fallen Angel
Год выпуска: 1945
Страна: США
Жанр: фильм-нуар, мелодрама, криминал, детектив
Продолжительность: 01:37:08
Перевод: профессиональный многоголосый

Режиссер: Отто Премингер
В ролях: Элис Фэй, Дэна Эндрюс, Линда Дарнелл, Чарльз Бикфорд, Энн Ревер, Брюс Сабот, Джон Кэрредин, Перси Килбрайд, Дороти Адамс (I), Херберт Эшли, Адель Йоргенс

О фильме: Фильм рассказывает об обанкротившемся руководителе нью-йоркского рекламного агентства, который, оказавшись в небольшом городке между Сан-Франциско и Лос-Анджелесом, влюбляется в местную официантку, женится ради денег на дочери бывшего мэра, а затем раскрывает убийство официантки, в котором его пытаются обвинить... Источником для фильма послужил одноимённый роман Марти Холланд.



Качество: BDRip 1080p
Формат: MKV
Видео: MPEG-4 AVC, 11.5 Mбит/с, 1438x1080, 24 кадр/с
Аудио 1: русский, AC3, 192 kbps, 2 ch, 48 kHz [закадровый многоголосый, DVD Classic]
Аудио 2: английский, AC3, 192 kbps, 2 ch, 48 kHz [оригинал]
Субтитры: английские
Главы/чаптеры
Общее
Уникальный идентификатор : 185200121283358073469637360023712272386 (0x8B543EF5297F262A90B37DDA933B9002)
Полное имя : D:\Video\Падший ангел.1945.BDRip 1080p by msltel.mkv
Формат : Matroska
Версия формата : Version 4
Размер файла : 8,09 Гбайт
Продолжительность : 1 ч. 37 м.
Общий поток : 11,9 Мбит/сек
Название фильма : Rip by msltel
Дата кодирования : UTC 2019-11-28 02:03:03
Программа кодирования : mkvmerge v8.2.0 ('World of Adventure') 64bit
Библиотека кодирования : libebml v1.3.1 + libmatroska v1.4.2

Видео
Идентификатор : 1
Формат : AVC
Формат/Информация : Advanced Video Codec
Профиль формата : High@L4.1
Настройки формата : CABAC / 4 Ref Frames
Параметр CABAC формата : Да
Параметр RefFrames формата : 4 кадра
Идентификатор кодека : V_MPEG4/ISO/AVC
Продолжительность : 1 ч. 37 м.
Битрейт : 11,5 Мбит/сек
Ширина : 1438 пикселей
Высота : 1080 пикселей
Соотношение сторон : 4:3
Режим частоты кадров : Постоянный
Частота кадров : 24,000 кадра/сек
Цветовое пространство : YUV
Субдискретизация насыщенности : 4:2:0
Битовая глубина : 8 бит
Тип развёртки : Прогрессивная
Бит/(Пиксели*Кадры) : 0.310
Размер потока : 7,83 Гбайт (97%)
Библиотека кодирования : x264 core 157 r2935 545de2f
Настройки программы : cabac=1 / ref=4 / deblock=1:-2:-2 / analyse=0x3:0x113 / me=umh / subme=11 / psy=1 / psy_rd=1.00:0.15 / mixed_ref=1 / me_range=32 / chroma_me=1 / trellis=2 / 8x8dct=1 / cqm=0 / deadzone=21,11 / fast_pskip=0 / chroma_qp_offset=-3 / threads=6 / lookahead_threads=1 / sliced_threads=0 / nr=0 / decimate=1 / interlaced=0 / bluray_compat=0 / constrained_intra=0 / bframes=9 / b_pyramid=2 / b_adapt=2 / b_bias=0 / direct=1 / weightb=1 / open_gop=0 / weightp=2 / keyint=230 / keyint_min=23 / scenecut=40 / intra_refresh=0 / rc_lookahead=40 / rc=crf / mbtree=1 / crf=19.5 / qcomp=0.60 / qpmin=0 / qpmax=69 / qpstep=4 / vbv_maxrate=50000 / vbv_bufsize=62500 / crf_max=0.0 / nal_hrd=none / filler=0 / ip_ratio=1.40 / aq=1:1.00
Язык : English
Default : Да
Forced : Нет

Аудио #1
Идентификатор : 2
Формат : AC-3
Формат/Информация : Audio Coding 3
Коммерческое название : Dolby Digital
Идентификатор кодека : A_AC3
Продолжительность : 1 ч. 37 м.
Вид битрейта : Постоянный
Битрейт : 192 Кбит/сек
Каналы : 2 канала
ChannelLayout : L R
Частота : 48,0 КГц
Частота кадров : 31,250 кадров/сек (1536 SPF)
Метод сжатия : С потерями
Размер потока : 133 Мбайт (2%)
Заголовок : MVO DVD Classic
Язык : Russian
ServiceKind/String : Complete Main
Default : Да
Forced : Нет

Аудио #2
Идентификатор : 3
Формат : AC-3
Формат/Информация : Audio Coding 3
Коммерческое название : Dolby Digital
Идентификатор кодека : A_AC3
Продолжительность : 1 ч. 37 м.
Вид битрейта : Постоянный
Битрейт : 192 Кбит/сек
Каналы : 2 канала
ChannelLayout : L R
Частота : 48,0 КГц
Частота кадров : 31,250 кадров/сек (1536 SPF)
Метод сжатия : С потерями
Размер потока : 133 Мбайт (2%)
Заголовок : original
Язык : English
ServiceKind/String : Complete Main
Default : Нет
Forced : Нет

Текст
Идентификатор : 4
Формат : UTF-8
Идентификатор кодека : S_TEXT/UTF8
Идентификатор кодека/Информация : UTF-8 Plain Text
Продолжительность : 1 ч. 35 м.
Битрейт : 73 бит/сек
ElementCount : 1468
Размер потока : 51,3 Кбайт (0%)
Заголовок : английские
Язык : English
Default : Нет
Forced : Нет

Меню
00:00:00.000 : en:Chapter 1
00:06:12.542 : en:Chapter 2
00:09:46.833 : en:Chapter 3
00:17:54.208 : en:Chapter 4
00:31:50.542 : en:Chapter 5
00:39:24.333 : en:Chapter 6
00:48:43.958 : en:Chapter 7
00:58:19.750 : en:Chapter 8
01:13:39.875 : en:Chapter 9
01:25:47.167 : en:Chapter 10
01:30:41.792 : en:Chapter 11
piratbit.org



Скачать Падший ангел через торрент https://b.radikal.ru/b13/1911/e7/30938ed28444.jpg Скачать фильм Падший ангел через торрент бесплантно в хорошем качестве О фильме: Фильм рассказывает об обанкротившемся руководителе нью-йоркского рекламного агентства, который, оказавшись в небольшом городке ... 5 10 1
Info! Золотая раздача, скачанное не засчитывается.
Торрент: Зарегистрирован [2019-11-28 05:28] · скачан: 2 раз
Статус: √ проверено
Размер: 8.09 GB
Как cкачать? Как скачать Падший ангел через торрент | qTorrent

28-11-2019 20:33  

Отключить всю рекламу на сайте

    Дорогой пользователь! Огромная просьба, поблагодарите релизера, оцените раздачу и оставьте свои комментарий, если Вы скачали Падший ангел через торрент бесплатно! Внесите свою лепту в развитие PiratBit!
    Комментировать посты могут только пользователи прошедшие не сложную регистрацию
    Показать сообщения:    

    Падший ангел через торрент
    Скачать бесплатно Падший ангел
    Падший ангел скачать торрент
    Падший ангел смотреть онлайн
    Cкачать фильм Падший ангел бесплатно
    Падший ангел скачать торрент в хорошем качестве
    Падший ангел смотреть онлайн бесплатно в хорошем качестве


    Вы не можете начинать темы
    Вы не можете отвечать на сообщения
    Вы не можете редактировать свои сообщения
    Вы не можете удалять свои сообщения
    Вы не можете голосовать в опросах
    Вы не можете прикреплять файлы к сообщениям
    Вы можете скачивать файлы