2 сезон

iTunes

WEBRip

1

2 сезон

iTunes

1 сезон

1 сезон

RePack

30

Новинка

ВАЖНО

ИГРА 18+

pack

RePack

MK11
pack

Легкие деньги

RePack

jed

RePack

fifa19

RePack

RDR2

RePack

NEED FOR SPEED™ PAYBACK

4 сезон

9 сезон

Бесстыжие 9 сезон

Все сериалы

все сериалы на PB.wtf

RePack

FAR CRY 5

Anonymous, доброй ночи, мы не успеваем собрать деньги на оплату серверов за февраль, помогите нам пожалуйста в это трудное время. В качестве благодарности мы отключим Вам всю рекламу на сайте (укажите свой ник в строку Ваше имя)!

×
  
Magnet ссылка

Стриптизёрши / Hustlers (Лорин Скафария) [2019, комедия, WEB-DL 1080p] [Ukr DUB] [iTunes] piratbit.org

Стриптизёрши через торрент piratbit.org

Раздают: 1 [ 0 KB/s ]
Размер: 7.4 GB | Добавлен: 1 год 2 мес. назад | Торрент скачан:30 раз
Скачать  

28-11-2019 07:57 Стриптизёрши Скачать торрент  

Стриптизёрши / Шахрайки з Волл-стріт / Hustlers«Inspired by a True Story»
Год выпуска: 2019
Страна: США
Жанр: комедия
Продолжительность: 01:49:40
Перевод: Украинский (дублированный)

Субтитры: английские

Режиссер: Лорин Скафария

В ролях: Констанс Ву, Дженнифер Лопез, Джулия Стайлз, Кеке Палмер, Лили Рейнхарт, Карди Би, Lizzo, Мадлен Брюэр, Метте Таули, Трейс Лисетт

Описание: Они - яркие, сексуальные и очень амбициозные. Они - танцовщицы элитного стриптиз-клуба, клиенты которого - известные финансисты с Уолл-Стрит. Но когда банковский кризис в одночасье превращает накопления девушек в пыль, подруги по несчастью жаждут отомстить. Они разрабатывают дерзкий план как вернуть потерянные деньги, чтобы снова вести роскошную гламурную жизнь, и отплатить биржевым гениям, оставив их без гроша.

rating скриншот  

Качество: WEB-DL 1080p
Формат: MKV

Видео: 1920x800, 23,976 fps, MPEG-4 AVC ~ 8818 Kbps avg
Аудио 1: AC3, 48 kHz, 2 ch, ~192.00 kbps avg - Ukr
Аудио 2: E-AC3, 48 kHz, 6 ch, ~640.00 kbps avg - Eng
скриншот  скриншот  скриншот  

General
Complete name : Hustlers (2019) WEB-DL 1080p AMZN [UKR_ENG] [ViDeO_Hurtom].mkv
Format : Matroska
Format version : Version 4
File size : 7.40 GiB
Duration : 1 h 49 min
Overall bit rate : 9 653 kb/s
Encoded date : UTC 2019-11-26 21:02:28
Writing application : mkvmerge v30.1.0 ('Forever And More') 64-bit
Writing library : libebml v1.3.6 + libmatroska v1.4.9
Cover : Yes
Attachments : cover.jpg

Video
ID : 1
Format : AVC
Format/Info : Advanced Video Codec
Format profile : High@L4
Format settings : CABAC / 4 Ref Frames
Format settings, CABAC : Yes
Format settings, RefFrames : 4 frames
Codec ID : V_MPEG4/ISO/AVC
Duration : 1 h 49 min
Bit rate mode : Constant
Bit rate : 8 818 kb/s
Nominal bit rate : 10 000 kb/s
Width : 1 920 pixels
Height : 800 pixels
Display aspect ratio : 2.40:1
Frame rate mode : Constant
Frame rate : 23.976 (24000/1001) FPS
Color space : YUV
Chroma subsampling : 4:2:0
Bit depth : 8 bits
Scan type : Progressive
Bits/(Pixel*Frame) : 0.239
Stream size : 6.76 GiB (91%)
Default : Yes
Forced : No
Color range : Limited
Color primaries : BT.709
Transfer characteristics : BT.709
Matrix coefficients : BT.709

Audio #1
ID : 2
Format : AC-3
Format/Info : Audio Coding 3
Commercial name : Dolby Digital
Codec ID : A_AC3
Duration : 1 h 49 min
Bit rate mode : Constant
Bit rate : 192 kb/s
Channel(s) : 2 channels
Channel layout : L R
Sampling rate : 48.0 kHz
Frame rate : 31.250 FPS (1536 SPF)
Bit depth : 16 bits
Compression mode : Lossy
Stream size : 151 MiB (2%)
Title : AC3 2.0 | 192
Language : Ukrainian
Service kind : Complete Main
Default : Yes
Forced : No

Audio #2
ID : 3
Format : E-AC-3
Format/Info : Enhanced AC-3
Commercial name : Dolby Digital Plus
Codec ID : A_EAC3
Duration : 1 h 49 min
Bit rate mode : Constant
Bit rate : 640 kb/s
Channel(s) : 6 channels
Channel layout : L R C LFE Ls Rs
Sampling rate : 48.0 kHz
Frame rate : 31.250 FPS (1536 SPF)
Compression mode : Lossy
Stream size : 502 MiB (7%)
Title : E-AC3 5.1 | 640
Language : English
Service kind : Complete Main
Default : No
Forced : No

Text #1
ID : 4
Format : UTF-8
Codec ID : S_TEXT/UTF8
Codec ID/Info : UTF-8 Plain Text
Duration : 1 h 43 min
Bit rate : 77 b/s
Count of elements : 1851
Stream size : 58.6 KiB (0%)
Title : Full
Language : English
Default : No
Forced : No

Text #2
ID : 5
Format : UTF-8
Codec ID : S_TEXT/UTF8
Codec ID/Info : UTF-8 Plain Text
Duration : 1 h 49 min
Bit rate : 82 b/s
Count of elements : 2021
Stream size : 65.6 KiB (0%)
Title : SDH
Language : English
Default : No
Forced : No

piratbit.org



Скачать Стриптизёрши через торрент https://i111.fastpic.ru/big/2019/1128/28/d29a705c49088c8b95fce4a836002c28.jpg Скачать фильм Стриптизёрши через торрент бесплантно в хорошем качестве Описание: Они - яркие, сексуальные и очень амбициозные. Они - танцовщицы элитного стриптиз-клуба, клиенты которого - известные финансисты с ... 7.8 10 4
Торрент: Зарегистрирован [2019-11-28 07:57] · скачан: 30 раз
Статус: √ проверено
Размер: 7.4 GB
Как cкачать? Как скачать Стриптизёрши через торрент | UTorrent

% Раздел Тема Автор DL S | L
Фильмы [HD 720p, 1080p] (Хороший звук DUB, MVO) [ 11.98 GB ] Стриптизёрши / Hustlers [2019 BDRip 1080p] bober100 Скачать
1 | 0
Ultra HD (UHD: 2K, 4K, 8K) — видео сверхвысокой чёткости [ 15.45 GB ] Стриптизёрши / Hustlers [2019 UHD BDRip 2160p] bober100 Скачать
1 | 0
Фильмы 2019-2020 [DVDrip, WEB-DLRip, HDrip] (DUB, MVO) [ 1.45 GB ] Стриптизёрши / Hustlers [2019 WEB-DLRip-AVC] - ExKinoRay Enigma2010 Скачать
2 | 0
Фильмы 2019-2020 [DVDrip, WEB-DLRip, HDrip] (DUB, MVO) [ 1.46 GB ] Стриптизёрши / Hustlers [2019 BDRip] DUB [] bober100 Скачать
4 | 0
Фильмы 2019-2020 [DVDrip, WEB-DLRip, HDrip] (DUB, MVO) [ 1.67 GB ] Стриптизёрши / Hustlers [2019 BDRip-AVC] bober100 Скачать
4 | 0
Фильмы [HD 720p, 1080p] (Хороший звук DUB, MVO) [ 5.25 GB ] Стриптизёрши / Hustlers [2019 BDRip 720p] bober100 Скачать
1 | 0
Ultra HD (UHD: 2K, 4K, 8K) — видео сверхвысокой чёткости [ 55.25 GB ] Стриптизёрши / Hustlers [2019 UHD BDRemux 2160p] bober100 Скачать
1 | 0

28-11-2019 20:33  

Отключить всю рекламу на сайте

    Дорогой пользователь! Огромная просьба, поблагодарите релизера, оцените раздачу и оставьте свои комментарий, если Вы скачали Стриптизёрши через торрент бесплатно! Внесите свою лепту в развитие PiratBit!
    Комментировать посты могут только пользователи прошедшие не сложную регистрацию
    Показать сообщения:    

    Стриптизёрши через торрент
    Скачать бесплатно Стриптизёрши
    Стриптизёрши скачать торрент
    Стриптизёрши смотреть онлайн
    Cкачать фильм Стриптизёрши бесплатно
    Стриптизёрши скачать торрент в хорошем качестве
    Стриптизёрши смотреть онлайн бесплатно в хорошем качестве


    Вы не можете начинать темы
    Вы не можете отвечать на сообщения
    Вы не можете редактировать свои сообщения
    Вы не можете удалять свои сообщения
    Вы не можете голосовать в опросах
    Вы не можете прикреплять файлы к сообщениям
    Вы можете скачивать файлы