Доктор Стрэндж

Лицензия

Добыча

Дубляж

Дом дракона

1 сезон

Тор

Дубляж

В эфире

Дубляж

Там, где раки поют

MVO

Властелин колец

1 сезон

Deluxe

pack

Рекомендуем

30

Пиратка

ВАЖНО

ВАЖНО

Ghostwire

Пиратка

jed

RePack

nioh2

RePack

RDR2

RePack

NEED FOR SPEED™ PAYBACK

RePack

скачать торрент

Кинопоиск HD

Острые козырьки 6 сезон

6 сезон

FAR CRY 6

RePack

скачать торрент

Лицензия

скачать торрент

MVO

1

1 сезон

скачать торрент

1 сезон

скачать торрент

Лицензия

  

Ирландец / The Irishman (Мартин Скорсезе) [2019, драма, криминал, биография, WEB-DLRip-AVC] Дубляж [Пифагор / Netflix]

Ирландец через торрент piratbit.org

Размер: 4.78 GB | Добавлен: 3 года назад | Торрент скачан:720 раз
Смотреть онлайн | Скачать   

28-11-2019 11:32 Ирландец Скачать торрент  

Ирландец / The Irishman
Год выпуска: 2019
Страна: США
Студия: Fábrica de Cine, Robert Simonds Company, The, Sikelia Productions, Tribeca Productions
Жанр: драма, криминал, биография
Продолжительность: 03:29:08
Перевод: Дублированный | Пифагор / Netflix
Субтитры: русские (Forced, Full), английские (Forced, Full, SDH), украинские (Forced)

Режиссер: Мартин Скорсезе

rating


В ролях: Роберт Де Ниро, Анна Пэкуин, Аль Пачино, Джо Пеши, Алекса Палладино, Джесси Племонс, Харви Кейтель, Бобби Каннавале, Стивен Грэм, Джек Хьюстон, Доменик Ломбардоззи, Кэтрин Нардуччи,
Рэй Романо, Себастьян Манискалко, Джейк Хоффман, Пол Бен-Виктор,

Описание: История о Фрэнке Ширэне по прозвищу Ирландец, которому приписывают убийство 25 гангстеров, включая самого Джимми Хоффу.

Качество: WEB-DLRip-AVC
Формат: MKV

Видео: MPEG-4 AVC/H.264, 2500 Кбит/сек, 1024x550
Аудио#1: Русский: AC3, 6 ch, 448 Кбит/сек
Аудио#2: Английский: AC3, 6 ch, 448 Кбит/сек
скриншот  скриншот  скриншот  

Общее
Уникальный идентификатор : 112169919950888403038094621777557470538 (0x5463240974D7F2FE18B755FAD60C3D4A)
Полное имя : F:\РЕЛИЗЫ\01. ФИЛЬМЫ\Ирландец The Irishman 2019\The Irishman (2019).mkv
Формат : Matroska
Версия формата : Version 4
Размер файла : 4,78 Гбайт
Продолжительность : 3 ч. 29 м.
Общий поток : 3268 Кбит/сек
Программа кодирования : Lavf
Библиотека кодирования : Lavf
Авторское право : [#ZsU®]
ErrorDetectionType : Per level 1
Attachments : poster.jpg
Язык : und

Видео
Идентификатор : 1
Формат : AVC
Формат/Информация : Advanced Video Codec
Профиль формата : High@L4.1
Настройки формата : CABAC / 10 Ref Frames
Параметр CABAC формата : Да
Параметр RefFrames формата : 10 кадров
Идентификатор кодека : V_MPEG4/ISO/AVC
Продолжительность : 3 ч. 29 м.
Битрейт : 2307 Кбит/сек
Номинальный битрейт : 2500 Кбит/сек
Ширина : 1024 пикселя
Высота : 550 пикселей
Соотношение сторон : 1,85:1
Режим частоты кадров : Постоянный
Частота кадров : 24,000 кадра/сек
Цветовое пространство : YUV
Субдискретизация насыщенности : 4:2:0
Битовая глубина : 8 бит
Тип развёртки : Прогрессивная
Бит/(Пиксели*Кадры) : 0.171
Размер потока : 3,38 Гбайт (71%)
Заголовок : USA (Fábrica de Cine, STX Entertainment, Sikelia Productions)
Библиотека кодирования : x264 core 157 r2958 57baac4
Настройки программы : cabac=1 / ref=10 / deblock=1:-3:-3 / analyse=0x3:0x133 / me=umh / subme=11 / psy=1 / psy_rd=1.05:0.10 / mixed_ref=1 / me_range=32 / chroma_me=1 / trellis=2 / 8x8dct=1 / cqm=0 / deadzone=21,11 / fast_pskip=0 / chroma_qp_offset=-3 / threads=11 / lookahead_threads=1 / sliced_threads=0 / nr=0 / decimate=1 / interlaced=0 / bluray_compat=0 / constrained_intra=0 / bframes=10 / b_pyramid=2 / b_adapt=1 / b_bias=8 / direct=1 / weightb=1 / open_gop=0 / weightp=1 / keyint=240 / keyint_min=24 / scenecut=40 / intra_refresh=0 / rc_lookahead=60 / rc=abr / mbtree=1 / bitrate=2500 / ratetol=1.0 / qcomp=0.70 / qpmin=3 / qpmax=69 / qpstep=4 / ip_ratio=1.40 / aq=2:1.00
Язык : English
Default : Да
Forced : Нет
Цветовой диапазон : Limited
Основные цвета : BT.709
Характеристики трансфера : BT.709
Коэффициенты матрицы : BT.709

Аудио #1
Идентификатор : 2
Формат : AC-3
Формат/Информация : Audio Coding 3
Коммерческое название : Dolby Digital
Идентификатор кодека : A_AC3
Продолжительность : 3 ч. 29 м.
Вид битрейта : Постоянный
Битрейт : 448 Кбит/сек
Каналы : 6 каналов
ChannelLayout : L R C LFE Ls Rs
Частота : 48,0 КГц
Частота кадров : 31,250 кадров/сек (1536 SPF)
Битовая глубина : 32 бит
Метод сжатия : С потерями
Размер потока : 671 Мбайт (14%)
Заголовок : Дубляж (Pythagoras)
Язык : Russian
ServiceKind/String : Complete Main
Default : Да
Forced : Нет

Аудио #2
Идентификатор : 3
Формат : AC-3
Формат/Информация : Audio Coding 3
Коммерческое название : Dolby Digital
Идентификатор кодека : A_AC3
Продолжительность : 3 ч. 29 м.
Вид битрейта : Постоянный
Битрейт : 448 Кбит/сек
Каналы : 6 каналов
ChannelLayout : L R C LFE Ls Rs
Частота : 48,0 КГц
Частота кадров : 31,250 кадров/сек (1536 SPF)
Битовая глубина : 32 бит
Метод сжатия : С потерями
Размер потока : 671 Мбайт (14%)
Заголовок : Original
Язык : English
ServiceKind/String : Complete Main
Default : Нет
Forced : Нет

Текст #1
Идентификатор : 4
Формат : UTF-8
Идентификатор кодека : S_TEXT/UTF8
Идентификатор кодека/Информация : UTF-8 Plain Text
Заголовок : Forced
Язык : Russian
Default : Да
Forced : Да

Текст #2
Идентификатор : 5
Формат : UTF-8
Идентификатор кодека : S_TEXT/UTF8
Идентификатор кодека/Информация : UTF-8 Plain Text
Заголовок : Full
Язык : Russian
Default : Да
Forced : Нет

Текст #3
Идентификатор : 6
Формат : UTF-8
Идентификатор кодека : S_TEXT/UTF8
Идентификатор кодека/Информация : UTF-8 Plain Text
Заголовок : Forced
Язык : English
Default : Нет
Forced : Нет

Текст #4
Идентификатор : 7
Формат : UTF-8
Идентификатор кодека : S_TEXT/UTF8
Идентификатор кодека/Информация : UTF-8 Plain Text
Заголовок : Full
Язык : English
Default : Нет
Forced : Нет

Текст #5
Идентификатор : 8
Формат : UTF-8
Идентификатор кодека : S_TEXT/UTF8
Идентификатор кодека/Информация : UTF-8 Plain Text
Заголовок : SDH
Язык : English
Default : Нет
Forced : Нет

Текст #6
Идентификатор : 9
Формат : UTF-8
Идентификатор кодека : S_TEXT/UTF8
Идентификатор кодека/Информация : UTF-8 Plain Text
Заголовок : Forced
Язык : Ukrainian
Default : Нет
Forced : Нет




Скачать Ирландец через торрент https://img15.lostpic.net/2019/11/27/aa684c83e761370cccd6244ec50e9231.jpg Скачать, смотреть онлайн Ирландец бесплантно в хорошем качестве Описание: История о Фрэнке Ширэне по прозвищу Ирландец, которому приписывают убийство 25 гангстеров, включая самого Джимми ... 10 10 7
Info! Золотая раздача, скачанное не засчитывается.
Торрент: Зарегистрирован [2019-11-28 11:32] · скачан: 720 раз
Статус: √ проверено
Размер: 4.78 GB
Как cкачать? Как скачать Ирландец через торрент | UTorrent

% Раздел Тема Автор DL S | L
Фильмы 2019-2020 [DVDrip, WEB-DLRip, HDrip] (DUB, MVO) [ 2.18 GB ] Ирландец / The Irishman | Пифагор | BDRip Twi7ter Скачать
12 | 1
Фильмы 2019-2020 [DVDrip, WEB-DLRip, HDrip] (DUB, MVO) [ 1.46 GB ] Ирландец / The Irishman | Пифагор | BDRip Twi7ter Скачать
7 | 0
Фильмы 2019-2020 [DVDrip, WEB-DLRip, HDrip] (DUB, MVO) [ 3.4 GB ] Ирландец / The Irishman | Пифагор | DLRip-AVC Enigma2010 Скачать
18 | 0
Фильмы [HD 720p, 1080p] (Хороший звук DUB, MVO) [ 11.78 GB ] Ирландец / The Irishman | Пифагор | 720p bober100 Скачать
2 | 0
Фильмы (Blu-ray, BD-Remux, HDDVD) [ 42.57 GB ] Ирландец / The Irishman | Пифагор | BD Remux 1080p bober100 Скачать
1 | 0
Фильмы [HD 720p, 1080p] (Хороший звук DUB, MVO) [ 31.99 GB ] Ирландец / The Irishman | Пифагор | 1080p bober100 Скачать
1 | 0
Ultra HD (UHD: 2K, 4K, 8K) [ 34.91 GB ] Ирландец / The Irishman | | 1080p killermax2013 Скачать
1 | 0

28-11-2019 20:33  


Отключить вcю реклaмy на сайте, в т.ч. и в плеере онлайн просмотра!

    Дорогой пользователь! Огромная просьба, поблагодарите релизера, оцените раздачу и оставьте свои комментарий, если Вы скачали Ирландец через торрент бесплатно!!
    Комментировать посты могут только пользователи прошедшие не сложную регистрацию
    Показать сообщения:    


    Ирландец через торрент
    Скачать бесплатно Ирландец
    Ирландец скачать торрент
    Ирландец смотреть онлайн
    Cкачать фильм Ирландец бесплатно
    Ирландец скачать торрент в хорошем качестве
    Ирландец смотреть онлайн бесплатно в хорошем качестве
    Вы не можете начинать темы
    Вы не можете отвечать на сообщения
    Вы не можете редактировать свои сообщения
    Вы не можете удалять свои сообщения
    Вы не можете голосовать в опросах
    Вы не можете прикреплять файлы к сообщениям
    Вы можете скачивать файлы
    Ирландец / The Irishman [2019, драма, криминал, биография, WEB-DLRip-AVC] Дубляж [Пифагор / Netflix] смотреть онлайн, скачать торрент picoco.icu