Достать ножи: Стеклянная луковица

MVO

Добыча

Дубляж

Уэнсдэй

1 сезон

Тор

Дубляж

13 клиническая

1 сезон

Жестокая ночь

MVO

Одни из нас

1 сезон

Deluxe

pack

Рекомендуем

30

Пиратка

ВАЖНО

ВАЖНО

Ghostwire

Пиратка

jed

RePack

nioh2

RePack

RDR2

RePack

NEED FOR SPEED™ PAYBACK

RePack

скачать торрент

Кинопоиск HD

Острые козырьки 6 сезон

6 сезон

FAR CRY 6

RePack

скачать торрент

Лицензия

скачать торрент

MVO

1

1 сезон

скачать торрент

1 сезон

скачать торрент

Лицензия

  

Однажды в… Голливуде / Once Upon a Time ... in Hollywood (Квентин Тарантино) [2019, драма, комедия, UHD BDRemux 2160p] Дубляж (rus, ukr) [Лицензия]

Однажды в… Голливуде через торрент piratbit.org

Размер: 66.93 GB | Добавлен: 3 года 1 мес. назад | Торрент скачан:257 раз
Смотреть онлайн | Скачать | Поддержите нас   

29-11-2019 13:48 Однажды в… Голливуде Скачать торрент  

Однажды в… Голливуде / Once Upon a Time ... in Hollywood
Год выпуска: 2019
Страна: Великобритания, США, Китай
Студия: Bona Film Group, Heyday Films, Sony Pictures Entertainment
Жанр: драма, комедия
Продолжительность: 02:41:29
Перевод: Дублированный | Лицензия
Субтитры: Русские (Forced, full), украинские (Full), английские

Режиссер: Квентин Тарантино

rating

В ролях:

Леонардо ДиКаприо (Rick Dalton), Брэд Питт (Cliff Booth), Марго Робби (Sharon Tate), Эмиль Хирш (Jay Sebring), Маргарет Куэлли (Pussycat), Тимоти Олифант (James Stacy), Джулия Баттерз (Trudi Fraser), Остин Батлер (Tex Watson), Дакота Фаннинг (Squeaky Fromme), Брюс Дерн (George Spahn), Майк Мо (Bruce Lee), Люк Перри (Wayne Maunder)
Описание: Фильм повествует о череде событий, произошедших в Голливуде в 1969 году, на закате его «золотого века». По сюжету, известный ТВ актер Рик Далтон и его дублер Клифф Бут пытаются найти свое место в стремительно меняющемся мире киноиндустрии.

Качество: UHD BDRemux 2160p
Формат: MKV

Видео: 3840x2160 at 23.976 fps, MPEG-H HEVC HDR Video, 56000 kbps avg
Аудио #01: 48 kHz, AC3, 5.1, 640 Kbps | Дублированный | RUS |
Аудио #02: 48 kHz, AC3, 2.0, 160 Kbps | Дублированный | UKR |
Аудио #03: 48 kHz, DTS-HD MA, 7.1, 2560 Kbps | Оригинал | ENG |
скриншот  скриншот  скриншот  скриншот  скриншот  

General
Unique ID : 227662258311536421095444428125747084243 (0xAB4627F2D21E5015C26998C03E94FBD3)
Complete name : H:Video222Once.Upon.a.Time.in.Hollywood.2019.Lic.BDREMUX.2160p.HDR.seleZen.mkv
Format : Matroska
Format version : Version 4
File size : 66.9 GiB
Duration : 2 h 41 min
Overall bit rate mode : Variable
Overall bit rate : 59.3 Mb/s
Movie name : Once Upon a Time in Hollywood 2019 from селезень
Encoded date : UTC 2019-11-29 13:31:16
Writing application : mkvmerge v40.0.0 ('Old Town Road + Pony') 64-bit
Writing library : libebml v1.3.9 + libmatroska v1.5.2

Video
ID : 1
Format : HEVC
Format/Info : High Efficiency Video Coding
Format profile : Main 10@L5.1@High
HDR format : SMPTE ST 2086, HDR10 compatible
Codec ID : V_MPEGH/ISO/HEVC
Duration : 2 h 41 min
Bit rate : 56.0 Mb/s
Width : 3 840 pixels
Height : 2 160 pixels
Display aspect ratio : 16:9
Frame rate mode : Constant
Frame rate : 23.976 (24000/1001) FPS
Color space : YUV
Chroma subsampling : 4:2:0 (Type 2)
Bit depth : 10 bits
Bits/(Pixel*Frame) : 0.281
Stream size : 63.1 GiB (94%)
Language : English
Default : Yes
Forced : No
Color range : Limited
Color primaries : BT.2020
Transfer characteristics : PQ
Matrix coefficients : BT.2020 non-constant
Mastering display color pri : Display P3
Mastering display luminance : min: 0.0001 cd/m2, max: 1000 cd/m2
Maximum Content Light Level : 385 cd/m2
Maximum Frame-Average Light : 213 cd/m2

Audio #1
ID : 2
Format : AC-3
Format/Info : Audio Coding 3
Commercial name : Dolby Digital
Codec ID : A_AC3
Duration : 2 h 41 min
Bit rate mode : Constant
Bit rate : 640 kb/s
Channel(s) : 6 channels
Channel layout : L R C LFE Ls Rs
Sampling rate : 48.0 kHz
Frame rate : 31.250 FPS (1536 SPF)
Bit depth : 16 bits
Compression mode : Lossy
Stream size : 739 MiB (1%)
Title : Дубляж [License]
Language : Russian
Service kind : Complete Main
Default : Yes
Forced : Yes

Audio #2
ID : 3
Format : AC-3
Format/Info : Audio Coding 3
Commercial name : Dolby Digital
Codec ID : A_AC3
Duration : 2 h 41 min
Bit rate mode : Constant
Bit rate : 160 kb/s
Channel(s) : 2 channels
Channel layout : L R
Sampling rate : 48.0 kHz
Frame rate : 31.250 FPS (1536 SPF)
Bit depth : 16 bits
Compression mode : Lossy
Stream size : 185 MiB (0%)
Title : Дубляж
Language : Ukrainian
Service kind : Complete Main
Default : No
Forced : No

Audio #3
ID : 4
Format : DTS XLL
Format/Info : Digital Theater Systems
Commercial name : DTS-HD Master Audio
Codec ID : A_DTS
Duration : 2 h 41 min
Bit rate mode : Variable
Bit rate : 2 560 kb/s
Channel(s) : 8 channels
Channel layout : C L R LFE Lb Rb Lss Rss
Sampling rate : 48.0 kHz
Frame rate : 93.750 FPS (512 SPF)
Bit depth : 16 bits
Compression mode : Lossless
Stream size : 2.89 GiB (4%)
Title : Original
Language : English
Default : No
Forced : No

Text #1
ID : 5
Format : UTF-8
Codec ID : S_TEXT/UTF8
Codec ID/Info : UTF-8 Plain Text
Duration : 2 h 36 min
Bit rate : 0 b/s
Count of elements : 16
Stream size : 646 Bytes (0%)
Title : Forced
Language : Russian
Default : Yes
Forced : Yes

Text #2
ID : 6
Format : UTF-8
Codec ID : S_TEXT/UTF8
Codec ID/Info : UTF-8 Plain Text
Duration : 2 h 40 min
Bit rate : 75 b/s
Count of elements : 1766
Stream size : 88.7 KiB (0%)
Title : Full
Language : Russian
Default : No
Forced : No

Text #3
ID : 7
Format : UTF-8
Codec ID : S_TEXT/UTF8
Codec ID/Info : UTF-8 Plain Text
Duration : 2 h 40 min
Bit rate : 82 b/s
Count of elements : 1817
Stream size : 97.1 KiB (0%)
Title : Full
Language : Ukrainian
Default : No
Forced : No

Text #4
ID : 8
Format : UTF-8
Codec ID : S_TEXT/UTF8
Codec ID/Info : UTF-8 Plain Text
Duration : 2 h 40 min
Bit rate : 61 b/s
Count of elements : 2543
Stream size : 72.8 KiB (0%)
Title : SDH
Language : English
Default : No
Forced : No

Menu
00:00:00.000 : en:Глава 01
00:04:49.414 : en:Глава 02
00:13:45.199 : en:Глава 03
00:18:29.150 : en:Глава 04
00:22:00.319 : en:Глава 05
00:25:59.349 : en:Глава 06
00:28:41.094 : en:Глава 07
00:33:45.106 : en:Глава 08
00:40:19.334 : en:Глава 09
00:49:59.455 : en:Глава 10
00:51:48.689 : en:Глава 11
00:59:52.255 : en:Глава 12
01:02:32.874 : en:Глава 13
01:04:28.615 : en:Глава 14
01:09:16.736 : en:Глава 15
01:17:40.781 : en:Глава 16
01:20:25.779 : en:Глава 17
01:26:28.433 : en:Глава 18
01:32:54.444 : en:Глава 19
01:39:58.492 : en:Глава 20
01:47:55.219 : en:Глава 21
01:53:00.232 : en:Глава 22
01:58:09.541 : en:Глава 23
02:06:23.993 : en:Глава 24
02:11:22.958 : en:Глава 25
02:15:50.100 : en:Глава 26
02:21:30.190 : en:Глава 27
02:29:50.732 : en:Глава 28
02:36:28.254 : en:Глава 29
02:38:51.230 : en:Глава 30




Скачать Однажды в… Голливуде через торрент https://img15.lostpic.net/2019/11/29/2ce54cfc5ced576c33eb232b2c47bc8e.jpg Скачать, смотреть онлайн Однажды в… Голливуде бесплантно в хорошем качестве Описание: Фильм повествует о череде событий, произошедших в Голливуде в 1969 году, на закате его «золотого века». По сюжету, известный ТВ ... 10 10 8
Торрент: Зарегистрирован [2019-11-29 13:48] · скачан: 257 раз
Статус: √ проверено
Размер: 66.93 GB
Как cкачать? Как скачать Однажды в… Голливуде через торрент | UTorrent

% Раздел Тема Автор DL S | L
Разное [ 591 MB ] Квентин Тарантино - Однажды в Голливуде [Всеволод Кузнецов, 2021, 128 kbps, MP3 | | Квентин Тарантино - Однажды в Голливуде [Всеволод Кузнецов, 2021, 128 kbps, MP3 bober100 Скачать
1 | 0
Фильмы 2019-2020 [DVDrip, WEB-DLRip, HDrip] (DUB, MVO) [ 3.43 GB ] Однажды в… Голливуде / Once Upon a Time ... in Hollywood | Лицензия | BDRip-AVC Enigma2010 Скачать
5 | 0
Фильмы [HD 720p, 1080p] (Хороший звук DUB, MVO) [ 7.48 GB ] Однажды в… Голливуде / Once Upon a Time ... in Hollywood | Лицензия | 720p, Дубляж Лицензия, AVO morfyi Скачать
1 | 0
Фильмы 2019-2020 [DVDrip, WEB-DLRip, HDrip] (DUB, MVO) [ 1.46 GB ] Однажды в… Голливуде / Once Upon a Time ... in Hollywood | Лицензия | BDRip Twi7ter Скачать
3 | 0
Фильмы 2019-2020 [DVDrip, WEB-DLRip, HDrip] (DUB, MVO) [ 2.18 GB ] Однажды в… Голливуде / Once Upon a Time ... in Hollywood | Лицензия | BDRip Twi7ter Скачать
35 | 1
Фильмы с авторской озвучкой [ 2.18 GB ] Однажды в… Голливуде / Once Upon a Time ... in Hollywood | AVO | HDRip killermax2013 Скачать
2 | 0
Фильмы 2019-2020 [DVDrip, WEB-DLRip, HDrip] (DUB, MVO) [ 3.2 GB ] Однажды в… Голливуде / Once Upon a Time ... in Hollywood | iTunes | DLRip-AVC Enigma2010 Скачать
8 | 0

28-11-2019 20:33  


Отключить вcю реклaмy на сайте, в т.ч. и в плеере онлайн просмотра!

    Дорогой пользователь! Огромная просьба, поблагодарите релизера, оцените раздачу и оставьте свои комментарий, если Вы скачали Однажды в… Голливуде через торрент бесплатно!!
    Комментировать посты могут только пользователи прошедшие не сложную регистрацию
    Показать сообщения:    


    Однажды в… Голливуде через торрент
    Скачать бесплатно Однажды в… Голливуде
    Однажды в… Голливуде скачать торрент
    Однажды в… Голливуде смотреть онлайн
    Cкачать фильм Однажды в… Голливуде бесплатно
    Однажды в… Голливуде скачать торрент в хорошем качестве
    Однажды в… Голливуде смотреть онлайн бесплатно в хорошем качестве
    Вы не можете начинать темы
    Вы не можете отвечать на сообщения
    Вы не можете редактировать свои сообщения
    Вы не можете удалять свои сообщения
    Вы не можете голосовать в опросах
    Вы не можете прикреплять файлы к сообщениям
    Вы можете скачивать файлы
    Однажды в… Голливуде / Once Upon a Time ... in Hollywood [2019, драма, комедия, UHD BDRemux 2160p] Дубляж [Лицензия] смотреть онлайн, скачать торрент picoco.icu