новый адрес
Ссылка на приватное зеркало всего за 1$. Внимание количество ограничено!!!

iTunes

1+1

iTunes

мы

WEB-DL

1

iTunes

Чернобыль

iTunes

Ральф против интернета

Лицензия

ПШазам

Лицензия

Оно 2

Лицензия

30
pack

Вам бонус

ВАЖНО

!!Акция!!

Alien_RageХит недели

RePack

Resident Evil 21

ИГРА 18+

pack

RePack

jed

!!Акция!!

Alien_Rage

RePack

fifa19

RePack

Assassins Creed: Odyssey

RePack

NEED FOR SPEED™ PAYBACK

3 сезон

9 сезон

Бесстыжие 9 сезон

Все сериалы

все сериалы на PB.wtf

RePack

FAR CRY 5
Ребята, катастрофически не хватает 1900р. для оплаты серверов за Октябрь (всвязи с блокировками трафик упал в 3 раза), 1-2р., выручайте.
  

Дом с прислугой / Servant / Сезон: 1 / Серии: 1-3 из 10 (М. Найт Шьямалан, Лиза Брюльманн) [2019, ужасы, триллер, драма, WEB-DL 1080p] [MVO] (AlexFilm) piratbit.org

Дом с прислугой через торрент piratbit.org

Качают: 1 [ 0 KB/s ]
Размер: 7.35 GB | Добавлен: 2 д. 5 ч. назад | Торрент скачан:0 раз
Скачать  

01-12-2019 20:09 Дом с прислугой Скачать торрент  

Дом с прислугой / Servant
Год выпуска: 2019
Страна: США
Жанр: ужасы, триллер, драма
Продолжительность: ~ 00:35:00
Озвучание: Профессиональное (многоголосое закадровое) * AlexFilm*

Режиссер: М. Найт Шьямалан, Лиза Брюльманн

В ролях: Лорен Эмброуз, Тоби Кеббелл, Нелл Тайгер Фри, Руперт Гринт, Филлип Джеймс Браннон, С.Дж. Сын, Джеффри Моуэри, Родни Джонс, Сара Бирманн, Рональд Мелтон Брэкстон

Описание: У супругов Тёрнер случилась беда - они потеряли трёхмесячного малыша. Дороти никак не может оправиться от трагедии, поэтому продолжает нянчить куклу и даже нанимает для этих целей няню, девушку Лиенн. А та, как будто, не замечает странностей и обращается с куклой как с настоящим младенцем.

rating

скриншот  

Качество: WEB-DL 1080p
Формат: MKV
Видео: 1920х960, 23.976 fps, MPEG-4 AVC ~10000 kbps avg, 0.229 bit/pixel
Аудио Rus: 48 kHz, AC3 Dolby Digital, 3/2 (L,C,R,l,r) + LFE ch, ~384.00 kbps
Аудио Eng: 48 kHz, AC3 Dolby Digital, 3/2 (L,C,R,l,r) + LFE ch, ~384.00 kbps
Перевод: Константин Кривоногов
Монтаж и сведение звука: Герман Карика

Роли озвучивали:
Наталья Долгова
Ляна Сибирцева
Кирилл Патрино
Михаил Цареградский
Алексей Никитин
скриншот   скриншот   скриншот  

General
Unique ID : 264584841953131165357833692977775381359 (0xC70D2FDEE4FD0D791023369AD69E0B6F)
Complete name : E:\Servant - Season 1 (AlexFilm) WEB-DL 1080p\Servant.s01e01.WEB-DL.1080p.Rus.Eng.AlexFilm.mkv
Format : Matroska
Format version : Version 4 / Version 2
File size : 2.67 GiB
Duration : 34 min 58 s
Overall bit rate : 10.9 Mb/s
Encoded date : UTC 2019-12-01 16:45:37
Writing application : mkvmerge v40.0.0 ('Old Town Road + Pony') 64-bit
Writing library : libebml v1.3.9 + libmatroska v1.5.2

Video
ID : 1
Format : AVC
Format/Info : Advanced Video Codec
Format profile : High@L4
Format settings : CABAC / 4 Ref Frames
Format settings, CABAC : Yes
Format settings, RefFrames : 4 frames
Codec ID : V_MPEG4/ISO/AVC
Duration : 34 min 58 s
Bit rate : 9 924 kb/s
Width : 1 920 pixels
Height : 960 pixels
Display aspect ratio : 2.000
Frame rate mode : Constant
Frame rate : 23.976 (24000/1001) FPS
Color space : YUV
Chroma subsampling : 4:2:0
Bit depth : 8 bits
Scan type : Progressive
Bits/(Pixel*Frame) : 0.225
Stream size : 2.42 GiB (91%)
Language : English
Default : Yes
Forced : No
Color range : Limited
Color primaries : BT.709
Transfer characteristics : BT.709
Matrix coefficients : BT.709

Audio #1
ID : 2
Format : AC-3
Format/Info : Audio Coding 3
Format settings, Endianness : Big
Codec ID : A_AC3
Duration : 34 min 58 s
Bit rate mode : Constant
Bit rate : 384 kb/s
Channel(s) : 6 channels
Channel positions : Front: L C R, Side: L R, LFE
Sampling rate : 48.0 kHz
Frame rate : 31.250 FPS (1536 SPF)
Bit depth : 16 bits
Compression mode : Lossy
Stream size : 96.1 MiB (4%)
Title : DD 5.1 AlexFilm
Language : Russian
Service kind : Complete Main
Default : Yes
Forced : No

Audio #2
ID : 3
Format : AC-3
Format/Info : Audio Coding 3
Format settings, Endianness : Big
Codec ID : A_AC3
Duration : 34 min 58 s
Bit rate mode : Constant
Bit rate : 384 kb/s
Channel(s) : 6 channels
Channel positions : Front: L C R, Side: L R, LFE
Sampling rate : 48.0 kHz
Frame rate : 31.250 FPS (1536 SPF)
Bit depth : 16 bits
Compression mode : Lossy
Stream size : 96.1 MiB (4%)
Title : Eng
Language : English
Service kind : Complete Main
Default : No
Forced : No

Внимание! Раздача ведётся путём добавления новых серий; при каждом добавлении создаётся новый торрент. Чтобы начать докачку новой серии, пользователям необходимо сделать следующее:
(1) остановить скачивание,
(2) удалить старый торрент у себя из клиента (старые серии удалять не надо),
(3) скачать новый торрент и запустить его у себя в клиенте вместо старого, при этом указать клиенту путь в старую папку куда и должно происходить скачивание новых серий.

Ваш клиент при этом должен произвести хеширование (проверку) старой папки (если не производит сам - помогите ему сделать это), и будет докачивать только те серии которых у вас ещё нет. Старые серии при этом не удаляются, а продолжают раздаваться!

Eсли вы уже удалили старые серии, то предотвратить повторную закачку старых серий можно, отжав галочку в соответсвующих местах при запуске нового торрента. По возможности, желательно не удалять старые серии как можно дольше чтобы релизёр не столько продолжал раздавать старые серии, а смог сконцентрироваться на новых.
piratbit.org



Скачать Дом с прислугой через торрент https://i111.fastpic.ru/big/2019/1128/b3/6e387f170d11302017f89f1d22ecf7b3.jpg Скачать фильм Дом с прислугой через торрент бесплантно в хорошем качестве Описание: У супругов Тёрнер случилась беда - они потеряли трёхмесячного малыша. Дороти никак не может оправиться от трагедии, поэтому ... 10 10 2
Торрент: Зарегистрирован [2019-12-04 18:11] · скачан: 0 раз
Статус: √ проверено
Размер: 7.35 GB
Как cкачать? Как скачать Дом с прислугой через торрент | qTorrent

% Раздел Тема Автор DL S | L
Зарубежные сериалы [ 1.19 GB ] Дом с прислугой / Servant / Сезон: 1 / Серии: 1-3 из 10 [2019 WEB-DLRip] MVO [Jaskier] bober100 Скачать
2 | 0
Зарубежные сериалы [ 7.43 GB ] Дом с прислугой / Servant / Сезон: 1 / Серии: 1-3 из 10 [2019 WEB-DL 1080p] MVO [Jaskier] bober100 Скачать
2 | 0
Зарубежные сериалы [ 2.49 GB ] Дом с прислугой / Servant / Сезон: 1 / Серии: 1-3 из 10 [2019 WEB-DL 720p] MVO [Jaskier] bober100 Скачать
2 | 0
Зарубежные сериалы [ 2.75 GB ] Дом с прислугой / Servant / Сезон: 1 / Серии: 1-3 из 10 [2019 WEB-DL 720p] [MVO] killermax2013 Скачать
1 | 0
Зарубежные сериалы [ 7.7 GB ] Дом с прислугой / Servant / Сезон: 1 / Серии: 1-3 из 10 [2019 WEB-DL 1080p] [MVO] killermax2013 Скачать
1 | 0

28-11-2019 20:33  

Отключить всю рекламу на сайте

    Дорогой пользователь! Огромная просьба, поблагодарите релизера, оцените раздачу и оставьте свои комментарий, если Вы скачали Дом с прислугой через торрент бесплатно! Внесите свою лепту в развитие PiratBit!
    Комментировать посты могут только пользователи прошедшие не сложную регистрацию
    Показать сообщения:    

    Дом с прислугой через торрент
    Скачать бесплатно Дом с прислугой
    Дом с прислугой скачать торрент
    Дом с прислугой смотреть онлайн
    Cкачать фильм Дом с прислугой бесплатно
    Дом с прислугой скачать торрент в хорошем качестве
    Дом с прислугой смотреть онлайн бесплатно в хорошем качестве


    Вы не можете начинать темы
    Вы не можете отвечать на сообщения
    Вы не можете редактировать свои сообщения
    Вы не можете удалять свои сообщения
    Вы не можете голосовать в опросах
    Вы не можете прикреплять файлы к сообщениям
    Вы можете скачивать файлы