Доктор Стрэндж

Лицензия

Добыча

MVO

Дом дракона

1 сезон

Тор

Лицензия

Мэверик

Лицензия

Там, где раки поют

MVO

Властелин колец

1 сезон

Ultimate

pack

Рекомендуем

30

Repack

ВАЖНО

ВАЖНО

Ghostwire

RePack

jed

RePack

nioh2

RePack

RDR2

RePack

NEED FOR SPEED™ PAYBACK

RePack

скачать торрент

Кинопоиск HD

Острые козырьки 6 сезон

6 сезон

FAR CRY 6

RePack

скачать торрент

Лицензия

скачать торрент

MVO

1

1 сезон

скачать торрент

1 сезон

скачать торрент

Лицензия

  

Возвращенная музыка (Виталий Аксенов) [1964, СССР, драма, SATRip-AVC от AVP Studio]

Возвращенная музыка через торрент piratbit.org

Размер: 744 MB | Добавлен: 2 года 10 мес. назад | Торрент скачан:16 раз
Смотреть онлайн Возвращенная музыка | Скачать   

02-12-2019 09:20 Возвращенная музыка Скачать торрент  

Возвращенная музыка
Страна: СССР
Производство: Ленфильм

Жанр: драма
Год выпуска: 1964
Продолжительность: 01:14:50

Перевод: Не требуется
Cубтитры: нет
Оригинальная аудиодорожка: русский

Режиссер: Виталий Аксенов

В ролях:
Раиса Спасская, Вильям Семёнов, Виктория Фёдорова, Алексей Кожевников, Николай Волков (старший), Евгений Тетерин...
Об актёрах подробней

Описание:
Молодой музыковед Марина Габриэлян приезжает в Ленинград с целью отыскать и восстановить первую симфонию известного композитора Сергея Корнилова. Несмотря на активное сопротивление автора, ей удается найти отдельные партии симфонии и с помощью молодого композитора Гурова восстановить музыку.

Исходник: DVB
Качество видео: SATRip-AVC
Формат видео: MKV

Видео: 696->763x360 (2,122:1), 25,000 кадров/сек, H264 ~ 1197 kbps avg, 0.191 bit/pixel
Аудио: 48 kHz, Dolby Digital AC3 2.0, 192 kbps

Раздача от:
Общее
Полное имя : Vozvrashchennaya.muzyka.1964.SATRip-AVC_[New-team]_by_AVP_Studio.mkv
Формат : Matroska
Версия формата : Version 2
Размер файла : 744 Мбайт
Продолжительность : 1 ч. 14 м.
Общий поток : 1391 Кбит/сек
Дата кодирования : UTC 2019-11-25 15:18:27
Программа кодирования : mkvmerge v6.1.0 ('Old Devil') built on Mar 4 2013 09:10:42
Библиотека кодирования : libebml v1.3.0 + libmatroska v1.4.0

Видео
Идентификатор : 1
Формат : AVC
Формат/Информация : Advanced Video Codec
Профиль формата : High@L4.1
Настройки формата : CABAC / 10 Ref Frames
Параметр CABAC формата : Да
Параметр RefFrames формата : 10 кадров
Идентификатор кодека : V_MPEG4/ISO/AVC
Продолжительность : 1 ч. 14 м.
Битрейт : 1197 Кбит/сек
Ширина : 696 пикселей
Высота : 360 пикселей
Соотношение сторон : 2,122
Режим частоты кадров : Постоянный
Частота кадров : 25,000 кадров/сек
Цветовое пространство : YUV
Субдискретизация насыщенности : 4:2:0
Битовая глубина : 8 бит
Тип развёртки : Прогрессивная
Бит/(Пиксели*Кадры) : 0.191
Размер потока : 627 Мбайт (84%)
Библиотека кодирования : x264 core 157 r2932 303c484
Настройки программы : cabac=1 / ref=10 / deblock=1:-2:-1 / analyse=0x3:0x113 / me=umh / subme=10 / psy=1 / psy_rd=1.00:0.00 / mixed_ref=1 / me_range=32 / chroma_me=1 / trellis=2 / 8x8dct=1 / cqm=0 / deadzone=21,11 / fast_pskip=1 / chroma_qp_offset=-2 / threads=6 / lookahead_threads=1 / sliced_threads=0 / nr=0 / decimate=0 / interlaced=0 / bluray_compat=0 / constrained_intra=0 / bframes=8 / b_pyramid=2 / b_adapt=2 / b_bias=0 / direct=3 / weightb=1 / open_gop=0 / weightp=2 / keyint=250 / keyint_min=25 / scenecut=40 / intra_refresh=0 / rc=2pass / mbtree=0 / bitrate=1197 / ratetol=1.0 / qcomp=0.60 / qpmin=0 / qpmax=69 / qpstep=4 / cplxblur=20.0 / qblur=0.5 / ip_ratio=1.40 / pb_ratio=1.30 / aq=1:1.00
Default : Да
Forced : Нет

Аудио
Идентификатор : 2
Формат : AC-3
Формат/Информация : Audio Coding 3
Коммерческое название : Dolby Digital
Идентификатор кодека : A_AC3
Продолжительность : 1 ч. 14 м.
Вид битрейта : Постоянный
Битрейт : 192 Кбит/сек
Каналы : 2 канала
ChannelLayout : L R
Частота : 48,0 КГц
Частота кадров : 31,250 кадров/сек (1536 SPF)
Битовая глубина : 16 бит
Метод сжатия : С потерями
Размер потока : 103 Мбайт (14%)
Default : Да
Forced : Нет



Скачать Возвращенная музыка через торрент http://d.radikal.ru/d26/1912/b9/0f4b12fe8f3b.png Скачать, смотреть онлайн Возвращенная музыка бесплантно в хорошем качестве Описание:Молодой музыковед Марина Габриэлян приезжает в Ленинград с целью отыскать и восстановить первую симфонию известного композитора ... 5 10 1
Торрент: Зарегистрирован [2019-12-02 09:20] · скачан: 16 раз
Статус: √ проверено
Размер: 744 MB
Как cкачать? Как скачать Возвращенная музыка через торрент | UTorrent

% Раздел Тема Автор DL S | L
Кино СССР [ 745 MB ] Возвращенная музыка | | SATRip от AVP Studio AVP Studio Скачать
1 | 0

28-11-2019 20:33  

Отключить вcю реклaмy на сайте

    Дорогой пользователь! Огромная просьба, поблагодарите релизера, оцените раздачу и оставьте свои комментарий, если Вы скачали Возвращенная музыка через торрент бесплатно!!
    Комментировать посты могут только пользователи прошедшие не сложную регистрацию
    Показать сообщения:    


    Возвращенная музыка через торрент
    Скачать бесплатно Возвращенная музыка
    Возвращенная музыка скачать торрент
    Возвращенная музыка смотреть онлайн
    Cкачать фильм Возвращенная музыка бесплатно
    Возвращенная музыка скачать торрент в хорошем качестве
    Возвращенная музыка смотреть онлайн бесплатно в хорошем качестве
    Вы не можете начинать темы
    Вы не можете отвечать на сообщения
    Вы не можете редактировать свои сообщения
    Вы не можете удалять свои сообщения
    Вы не можете голосовать в опросах
    Вы не можете прикреплять файлы к сообщениям
    Вы можете скачивать файлы