Достать ножи: Стеклянная луковица

MVO

Добыча

Дубляж

Уэнсдэй

1 сезон

Тор

Дубляж

13 клиническая

1 сезон

Жестокая ночь

MVO

Одни из нас

1 сезон

Deluxe

pack

Рекомендуем

30

Пиратка

ВАЖНО

ВАЖНО

Ghostwire

Пиратка

jed

RePack

nioh2

RePack

RDR2

RePack

NEED FOR SPEED™ PAYBACK

RePack

скачать торрент

Кинопоиск HD

Острые козырьки 6 сезон

6 сезон

FAR CRY 6

RePack

скачать торрент

Лицензия

скачать торрент

MVO

1

1 сезон

скачать торрент

1 сезон

скачать торрент

Лицензия

  

Стриптизёрши / Hustlers (Лорин Скафария) [2019, Комедия, криминал, драма, UHD BDRip 2160p] Дубляж [iTunes]

Стриптизёрши через торрент piratbit.org

Размер: 15.45 GB | Добавлен: 3 года 1 мес. назад | Торрент скачан:138 раз
Смотреть онлайн | Скачать | Поддержите нас   

03-12-2019 06:07 Стриптизёрши Скачать торрент  

Стриптизёрши / Hustlers«Inspired by a True Story»
Год выпуска: 2019
Страна: США
Студия: Annapurna Pictures, Gloria Sanchez Productions, Nuyorican Productions, STX Films
Жанр: Комедия, криминал, драма
Продолжительность: 01:50:06
Перевод: Дублированный | iTunes
Субтитры: Английские

Режиссер: Лорин Скафария

rating

В ролях: Констанс Ву, Дженнифер Лопез, Джулия Стайлз, Кеке Палмер, Лили Рейнхарт, Карди Би, Lizzo, Мадлен Брюэр, Метте Таули, Трейс Лисетт

Описание: Они - яркие, сексуальные и очень амбициозные. Они - танцовщицы элитного стриптиз-клуба, клиенты которого - известные финансисты с Уолл-Стрит. Но когда банковский кризис в одночасье превращает накопления девушек в пыль, подруги по несчастью жаждут отомстить. Они разрабатывают дерзкий план как вернуть потерянные деньги, чтобы снова вести роскошную гламурную жизнь, и отплатить биржевым гениям, оставив их без гроша.

Качество: UHD BDRip 2160p
Формат: MKV

Видео: HEVC HDR, 15.4 Mбит/с, 3840x1608, 23.976 Кадр/с, 10 Бит
Аудио #01: 48 kHz, AC3, 5.1, 384 Kbps | iTunes | RUS |
Аудио #02: 48 kHz, TrueHD, 7.1, 3545 Kbps | Оригинал | ENG |
Аудио #03: 48 kHz, AC3, 5.1, 640 Kbps | Оригинал | ENG |
скриншот  скриншот  скриншот  

скриншот  скриншот  скриншот  

Общее
Уникальный идентификатор : 223601201598275659537774076005202593691 (0xA8380664D236B0D98C166D1CE0E5079B)
Полное имя : G:\Hustlers.2019.2160p.UHD.BDRip.x265.10bit.HDR.Master5.mkv
Формат : Matroska
Версия формата : Version 4
Размер файла : 15,4 Гбайт
Продолжительность : 1 ч. 50 м.
Режим общего битрейта : Переменный
Общий поток : 20,1 Мбит/сек
Название фильма : Hustlers.2019.2160p.UHD.BDRip.x265.10bit.HDR.Master5
Дата кодирования : UTC 2019-12-02 22:46:34
Программа кодирования : mkvmerge v7.9.0 ('Birds') 64bit
Библиотека кодирования : libebml v1.3.1 + libmatroska v1.4.2

Видео
Идентификатор : 1
Формат : HEVC
Формат/Информация : High Efficiency Video Coding
Коммерческое название : HDR10
Профиль формата : Main 10@L5.1@High
Идентификатор кодека : V_MPEGH/ISO/HEVC
Продолжительность : 1 ч. 50 м.
Битрейт : 15,4 Мбит/сек
Ширина : 3840 пикселей
Высота : 1608 пикселей
Соотношение сторон : 2,40:1
Режим частоты кадров : Постоянный
Частота кадров : 23,976 (24000/1001) кадра/сек
Цветовое пространство : YUV
Субдискретизация насыщенности : 4:2:0 (Type 2)
Битовая глубина : 10 бит
Бит/(Пиксели*Кадры) : 0.104
Размер потока : 11,9 Гбайт (77%)
Заголовок : Hustlers.2019.2160p.UHD.BDRip.x265.10bit.HDR.Master5
Библиотека кодирования : x265 3.2+15-04db2bfee5d6:[Windows][GCC 9.2.1][64 bit] 10bit
Настройки программы : cpuid=1111039 / frame-threads=5 / numa-pools=32,0 / wpp / no-pmode / no-pme / no-psnr / no-ssim / log-level=2 / input-csp=1 / input-res=3840x1608 / interlace=0 / total-frames=158407 / level-idc=51 / high-tier=1 / uhd-bd=0 / ref=4 / no-allow-non-conformance / repeat-headers / annexb / aud / hrd / info / hash=0 / no-temporal-layers / no-open-gop / min-keyint=1 / keyint=24 / gop-lookahead=0 / bframes=4 / b-adapt=2 / b-pyramid / bframe-bias=0 / rc-lookahead=25 / lookahead-slices=4 / scenecut=40 / radl=0 / no-splice / no-intra-refresh / ctu=64 / min-cu-size=8 / rect / no-amp / max-tu-size=32 / tu-inter-depth=1 / tu-intra-depth=1 / limit-tu=0 / rdoq-level=2 / dynamic-rd=0.00 / no-ssim-rd / signhide / no-tskip / nr-intra=0 / nr-inter=0 / no-constrained-intra / no-strong-intra-smoothing / max-merge=3 / limit-refs=3 / limit-modes / me=3 / subme=3 / merange=57 / temporal-mvp / no-frame-dup / no-hme / weightp / no-weightb / no-analyze-src-pics / deblock=-3:-3 / no-sao / no-sao-non-deblock / rd=4 / selective-sao=0 / no-early-skip / rskip / no-fast-intra / no-tskip-fast / no-cu-lossless / no-b-intra / no-splitrd-skip / rdpenalty=0 / psy-rd=2.00 / psy-rdoq=1.00 / no-rd-refine / no-lossless / cbqpoffs=0 / crqpoffs=0 / rc=crf / crf=17.0 / qcomp=0.60 / qpstep=4 / stats-write=0 / stats-read=0 / vbv-maxrate=160000 / vbv-bufsize=160000 / vbv-init=0.9 / crf-max=0.0 / crf-min=0.0 / ipratio=1.40 / pbratio=1.30 / aq-mode=2 / aq-strength=1.00 / cutree / zone-count=0 / no-strict-cbr / qg-size=32 / no-rc-grain / qpmax=69 / qpmin=0 / no-const-vbv / sar=1 / overscan=0 / videoformat=5 / range=0 / colorprim=9 / transfer=16 / colormatrix=9 / chromaloc=1 / chromaloc-top=2 / chromaloc-bottom=2 / display-window=0 / master-display=G(13250,34500)B(7500,3000)R(34000,16000)WP(15635,16450)L(10000000,50) / cll=995,264 / min-luma=0 / max-luma=1023 / log2-max-poc-lsb=8 / vui-timing-info / vui-hrd-info / slices=1 / no-opt-qp-pps / no-opt-ref-list-length-pps / no-multi-pass-opt-rps / scenecut-bias=0.05 / no-opt-cu-delta-qp / no-aq-motion / hdr / hdr-opt / no-dhdr10-opt / no-idr-recovery-sei / analysis-reuse-level=5 / scale-factor=0 / refine-intra=0 / refine-inter=0 / refine-mv=1 / refine-ctu-distortion=0 / no-limit-sao / ctu-info=0 / no-lowpass-dct / refine-analysis-type=0 / copy-pic=1 / max-ausize-factor=1.0 / no-dynamic-refine / no-single-sei / no-hevc-aq / no-svt / no-field / qp-adaptation-range=1.00 / no-scenecut-aware-qp
Default : Да
Forced : Нет
Цветовой диапазон : Limited
Основные цвета : BT.2020
Характеристики трансфера : PQ
Коэффициенты матрицы : BT.2020 non-constant
MasteringDisplay_ColorPrimaries : Display P3
MasteringDisplay_Luminance : min: 0.0050 cd/m2, max: 1000 cd/m2
MaxCLL : 995 cd/m2
MaxFALL : 264 cd/m2

Аудио #1
Идентификатор : 2
Формат : AC-3
Формат/Информация : Audio Coding 3
Коммерческое название : Dolby Digital
Идентификатор кодека : A_AC3
Продолжительность : 1 ч. 49 м.
Вид битрейта : Постоянный
Битрейт : 384 Кбит/сек
Каналы : 6 каналов
Channel layout : L R C LFE Ls Rs
Частота : 48,0 КГц
Частота кадров : 31,250 кадров/сек (1536 SPF)
Битовая глубина : 16 бит
Метод сжатия : С потерями
Размер потока : 301 Мбайт (2%)
Заголовок : iTunes
Язык : Russian
ServiceKind/String : Complete Main
Default : Да
Forced : Да

Аудио #2
Идентификатор : 3
Формат : MLP FBA 16-ch
Формат/Информация : Meridian Lossless Packing FBA with 16-channel presentation
Коммерческое название : Dolby TrueHD with Dolby Atmos
Идентификатор кодека : A_TRUEHD
Продолжительность : 1 ч. 50 м.
Вид битрейта : Переменный
Битрейт : 3545 Кбит/сек
Максимальный битрейт : 5826 Кбит/сек
Каналы : 8 каналов
Channel layout : L R C LFE Ls Rs Lb Rb
Частота : 48,0 КГц
Частота кадров : 1200,000 кадров/сек (40 SPF)
Метод сжатия : Без потерь
Размер потока : 2,73 Гбайт (18%)
Заголовок : English Dolby TrueHD with Dolby Atmos (TrueHD)
Язык : English
Default : Нет
Forced : Нет
Number of dynamic objects : 11
Bed channel count : 1 канал
Bed channel configuration : LFE

Аудио #3
Идентификатор : 4
Формат : AC-3
Формат/Информация : Audio Coding 3
Коммерческое название : Dolby Digital
Идентификатор кодека : A_AC3
Продолжительность : 1 ч. 50 м.
Вид битрейта : Постоянный
Битрейт : 640 Кбит/сек
Каналы : 6 каналов
Channel layout : L R C LFE Ls Rs
Частота : 48,0 КГц
Частота кадров : 31,250 кадров/сек (1536 SPF)
Битовая глубина : 16 бит
Метод сжатия : С потерями
Размер потока : 504 Мбайт (3%)
Заголовок : English Dolby Digital (AC3)
Язык : English
ServiceKind/String : Complete Main
Default : Нет
Forced : Нет

Текст #1
Идентификатор : 5
Формат : UTF-8
Идентификатор кодека : S_TEXT/UTF8
Идентификатор кодека/Информация : UTF-8 Plain Text
Продолжительность : 1 ч. 49 м.
Битрейт : 81 бит/сек
ElementCount : 2004
Размер потока : 64,9 Кбайт (0%)
Заголовок : English SDH
Язык : English
Default : Нет
Forced : Нет

Текст #2
Идентификатор : 6
Формат : PGS
Режим смешивания : zlib
Идентификатор кодека : S_HDMV/PGS
Идентификатор кодека/Информация : Picture based subtitle format used on BDs/HD-DVDs
Продолжительность : 1 ч. 49 м.
Битрейт : 32,7 Кбит/сек
ElementCount : 4042
Размер потока : 25,5 Мбайт (0%)
Заголовок : English PGS
Язык : English
Default : Нет
Forced : Нет

Меню
00:00:00.000 : :Chapter 01
00:05:09.017 : :Chapter 02
00:11:19.345 : :Chapter 03
00:15:04.821 : :Chapter 04
00:21:22.823 : :Chapter 05
00:24:47.736 : :Chapter 06
00:30:46.178 : :Chapter 07
00:35:16.698 : :Chapter 08
00:40:44.067 : :Chapter 09
00:45:31.979 : :Chapter 10
00:52:58.550 : :Chapter 11
01:00:36.758 : :Chapter 12
01:04:27.030 : :Chapter 13
01:10:08.287 : :Chapter 14
01:15:02.581 : :Chapter 15
01:20:53.724 : :Chapter 16
01:27:47.762 : :Chapter 17
01:32:23.329 : :Chapter 18
01:37:27.091 : :Chapter 19
01:42:29.977 : :Chapter 20




Скачать Стриптизёрши через торрент https://img15.lostpic.net/2019/11/30/2627c938347777163c2e4657ecd0eb29.jpg Скачать, смотреть онлайн Стриптизёрши бесплантно в хорошем качестве Описание: Они - яркие, сексуальные и очень амбициозные. Они - танцовщицы элитного стриптиз-клуба, клиенты которого - известные финансисты с ... 10 10 8
Торрент: Зарегистрирован [2019-12-03 06:07] · скачан: 138 раз
Статус: √ проверено
Размер: 15.45 GB
Как cкачать? Как скачать Стриптизёрши через торрент | UTorrent

% Раздел Тема Автор DL S | L
Фильмы 2019-2020 [DVDrip, WEB-DLRip, HDrip] (DUB, MVO) [ 1.45 GB ] Стриптизёрши / Hustlers | iTunes | DLRip-AVC Enigma2010 Скачать
4 | 0
Фильмы [HD 720p, 1080p] (Хороший звук DUB, MVO) [ 11.98 GB ] Стриптизёрши / Hustlers | iTunes | 1080p bober100 Скачать
2 | 0
Фильмы 2019-2020 [DVDrip, WEB-DLRip, HDrip] (DUB, MVO) [ 1.46 GB ] Стриптизёрши / Hustlers | Лицензия | BDRip bober100 Скачать
2 | 0
Фильмы 2019-2020 [DVDrip, WEB-DLRip, HDrip] (DUB, MVO) [ 1.67 GB ] Стриптизёрши / Hustlers | iTunes | BDRip-AVC bober100 Скачать
1 | 0
Фильмы [HD 720p, 1080p] (Хороший звук DUB, MVO) [ 5.25 GB ] Стриптизёрши / Hustlers | iTunes | 720p bober100 Скачать
1 | 0
Ultra HD (UHD: 2K, 4K, 8K) [ 55.25 GB ] Стриптизёрши / Hustlers | iTunes | 2160p bober100 Скачать
1 | 0
Фильмы (Blu-ray, BD-Remux, HDDVD) [ 28.54 GB ] Стриптизёрши / Hustlers | iTunes | BD Remux, Дубляж iTunes Бумер Скачать
1 | 0

28-11-2019 20:33  


Отключить вcю реклaмy на сайте, в т.ч. и в плеере онлайн просмотра!

    Дорогой пользователь! Огромная просьба, поблагодарите релизера, оцените раздачу и оставьте свои комментарий, если Вы скачали Стриптизёрши через торрент бесплатно!!
    Комментировать посты могут только пользователи прошедшие не сложную регистрацию
    Показать сообщения:    


    Стриптизёрши через торрент
    Скачать бесплатно Стриптизёрши
    Стриптизёрши скачать торрент
    Стриптизёрши смотреть онлайн
    Cкачать фильм Стриптизёрши бесплатно
    Стриптизёрши скачать торрент в хорошем качестве
    Стриптизёрши смотреть онлайн бесплатно в хорошем качестве
    Вы не можете начинать темы
    Вы не можете отвечать на сообщения
    Вы не можете редактировать свои сообщения
    Вы не можете удалять свои сообщения
    Вы не можете голосовать в опросах
    Вы не можете прикреплять файлы к сообщениям
    Вы можете скачивать файлы
    Стриптизёрши / Hustlers [2019, Комедия, криминал, драма, UHD BDRip 2160p] Дубляж [iTunes] смотреть онлайн, скачать торрент picoco.icu