Ссылка на приватное зеркало нашего сайта всего за 1$. Внимание количество ограничено!!!

2 сезон

iTunes

1 сезон

1

iTunes

iTunes

iTunes

1 сезон

RePack

30

ИГРА 18+

pack

ВАЖНО

!!Акция!!

Alien_RageХит недели

RePack

MK11
pack

Забери бонус

RePack

jed

!!Акция!!

Alien_Rage

RePack

fifa19

RePack

Assassins Creed: Odyssey

RePack

NEED FOR SPEED™ PAYBACK

4 сезон

9 сезон

Бесстыжие 9 сезон

Все сериалы

все сериалы на PB.wtf

RePack

FAR CRY 5
  

Бродяга Архимед / Archimede, le clochard (Жиль Гранжье) [1959, драма, комедия, BDRip (AVC) by msltel] AVO piratbit.org

Бродяга Архимед через торрент piratbit.org

Размер: 1.83 GB | Добавлен: 10 мес. назад | Торрент скачан:4 раза
Скачать  

04-12-2019 07:50 Бродяга Архимед Скачать торрент  

Название: Бродяга Архимед
Оригинальное название: Archimede, le clochard
Год выпуска: 1959
Страна: Франция, Италия
Жанр: драма, комедия
Продолжительность: 01:23:54
Перевод: авторский

Режиссер: Жиль Гранжье
В ролях: Жан Габен, Бернар Блие, Дарри Коул, Дора Долл, Поль Франкёр, Бернар ла Жарриж, Габи Бассе, Поль Мерсе, Жюльен Каретт, Ноэль Рокуэр

О фильме: Ветеран-клошар Архимед уже, казалось бы, нашёл тёплое местечко накануне обещающей быть суровой зимы. Однако его изгоняют из строящегося здания, и теперь срочно требуется «запасной аэродром». Таковым могла бы стать… тюремная камера. Но оказывается, что получить «путёвку» в неё не так уж и просто. Архимед подходит к этой задаче ответственно и изобретательно, но безрезультатно: ни воровство в кафе, ни вмешательство в ход военного парада, ни залихватский скандал в метро не приводят к нужному результату. И тогда Архимед решает отправиться на юг, к Лазурному берегу… Автором сценарной идеи был сам Жан Габен.



Качество: BDRip (AVC)
Формат: MKV
Видео: MPEG-4 AVC, 2714 Kбит/с, 964x576, 24 кадр/с
Аудио 1: русский, AC3, 192 kbps, 2 ch, 48 kHz [авторский, Роман Янкелевич]
Аудио 2: французский, AC3, 192 kbps, 2 ch, 48 kHz [оригинал]
Общее
Уникальный идентификатор : 219772814137302007908386875665791779819 (0xA556B451A7342CE29C08B798AAD303EB)
Полное имя : D:\Video\Бродяга Архимед.1959.BDRip (AVC) by msltel.mkv
Формат : Matroska
Версия формата : Version 4
Размер файла : 1,83 Гбайт
Продолжительность : 1 ч. 27 м.
Общий поток : 2980 Кбит/сек
Название фильма : Rip by msltel
Дата кодирования : UTC 2019-12-04 02:17:57
Программа кодирования : mkvmerge v8.2.0 ('World of Adventure') 64bit
Библиотека кодирования : libebml v1.3.1 + libmatroska v1.4.2

Видео
Идентификатор : 1
Формат : AVC
Формат/Информация : Advanced Video Codec
Профиль формата : High@L4.1
Настройки формата : CABAC / 9 Ref Frames
Параметр CABAC формата : Да
Параметр RefFrames формата : 9 кадров
Идентификатор кодека : V_MPEG4/ISO/AVC
Продолжительность : 1 ч. 23 м.
Битрейт : 2714 Кбит/сек
Ширина : 964 пикселя
Высота : 576 пикселей
Соотношение сторон : 5:3
Режим частоты кадров : Постоянный
Частота кадров : 24,000 кадра/сек
Цветовое пространство : YUV
Субдискретизация насыщенности : 4:2:0
Битовая глубина : 8 бит
Тип развёртки : Прогрессивная
Бит/(Пиксели*Кадры) : 0.204
Размер потока : 1,59 Гбайт (87%)
Библиотека кодирования : x264 core 157 r2935 545de2f
Настройки программы : cabac=1 / ref=9 / deblock=1:-2:-2 / analyse=0x3:0x113 / me=umh / subme=11 / psy=1 / psy_rd=1.00:0.15 / mixed_ref=1 / me_range=32 / chroma_me=1 / trellis=2 / 8x8dct=1 / cqm=0 / deadzone=21,11 / fast_pskip=0 / chroma_qp_offset=-3 / threads=6 / lookahead_threads=1 / sliced_threads=0 / nr=0 / decimate=1 / interlaced=0 / bluray_compat=0 / constrained_intra=0 / bframes=6 / b_pyramid=2 / b_adapt=2 / b_bias=0 / direct=1 / weightb=1 / open_gop=0 / weightp=2 / keyint=230 / keyint_min=23 / scenecut=40 / intra_refresh=0 / rc_lookahead=40 / rc=crf / mbtree=0 / crf=20.0 / qcomp=0.60 / qpmin=0 / qpmax=69 / qpstep=4 / vbv_maxrate=50000 / vbv_bufsize=62500 / crf_max=0.0 / nal_hrd=none / filler=0 / ip_ratio=1.40 / pb_ratio=1.30 / aq=1:1.00
Язык : French
Default : Да
Forced : Нет

Аудио #1
Идентификатор : 2
Формат : AC-3
Формат/Информация : Audio Coding 3
Коммерческое название : Dolby Digital
Идентификатор кодека : A_AC3
Продолжительность : 1 ч. 27 м.
Вид битрейта : Постоянный
Битрейт : 192 Кбит/сек
Каналы : 2 канала
ChannelLayout : L R
Частота : 48,0 КГц
Частота кадров : 31,250 кадров/сек (1536 SPF)
Метод сжатия : С потерями
Размер потока : 121 Мбайт (6%)
Заголовок : Роман Янкелевич
Язык : Russian
ServiceKind/String : Complete Main
Default : Да
Forced : Нет

Аудио #2
Идентификатор : 3
Формат : AC-3
Формат/Информация : Audio Coding 3
Коммерческое название : Dolby Digital
Идентификатор кодека : A_AC3
Продолжительность : 1 ч. 27 м.
Вид битрейта : Постоянный
Битрейт : 192 Кбит/сек
Каналы : 2 канала
ChannelLayout : L R
Частота : 48,0 КГц
Частота кадров : 31,250 кадров/сек (1536 SPF)
Метод сжатия : С потерями
Размер потока : 121 Мбайт (6%)
Заголовок : original
Язык : French
ServiceKind/String : Complete Main
Default : Нет
Forced : Нет
piratbit.org



Скачать Бродяга Архимед через торрент https://d.radikal.ru/d25/1912/2f/5a72d3a540ba.jpg Скачать фильм Бродяга Архимед через торрент бесплантно в хорошем качестве О фильме: Ветеран-клошар Архимед уже, казалось бы, нашёл тёплое местечко накануне обещающей быть суровой зимы. Однако его изгоняют из ... 5 10 1
Торрент: Зарегистрирован [2019-12-04 07:50] · скачан: 4 раз
Статус: √ проверено
Размер: 1.83 GB
Как cкачать? Как скачать Бродяга Архимед через торрент | qTorrent

% Раздел Тема Автор DL S | L
Классика зарубежного кино [ 10.09 GB ] Бродяга Архимед / Archimede le clochard [1959 BDRip 1080p by msltel] AVO msltel Скачать
1 | 0
Классика зарубежного кино [ 3.23 GB ] Бродяга Архимед / Archimede le clochard [1959 BDRip 720p by msltel] AVO msltel Скачать
1 | 0

28-11-2019 20:33  

Отключить всю рекламу на сайте

    Дорогой пользователь! Огромная просьба, поблагодарите релизера, оцените раздачу и оставьте свои комментарий, если Вы скачали Бродяга Архимед через торрент бесплатно! Внесите свою лепту в развитие PiratBit!
    Комментировать посты могут только пользователи прошедшие не сложную регистрацию
    Показать сообщения:    

    Бродяга Архимед через торрент
    Скачать бесплатно Бродяга Архимед
    Бродяга Архимед скачать торрент
    Бродяга Архимед смотреть онлайн
    Cкачать фильм Бродяга Архимед бесплатно
    Бродяга Архимед скачать торрент в хорошем качестве
    Бродяга Архимед смотреть онлайн бесплатно в хорошем качестве


    Вы не можете начинать темы
    Вы не можете отвечать на сообщения
    Вы не можете редактировать свои сообщения
    Вы не можете удалять свои сообщения
    Вы не можете голосовать в опросах
    Вы не можете прикреплять файлы к сообщениям
    Вы можете скачивать файлы