2 сезон

iTunes

WEBRip

1

2 сезон

iTunes

1 сезон

1 сезон

RePack

30

Новинка

ВАЖНО

ИГРА 18+

pack

RePack

MK11
pack

Легкие деньги

RePack

jed

RePack

fifa19

RePack

RDR2

RePack

NEED FOR SPEED™ PAYBACK

4 сезон

9 сезон

Бесстыжие 9 сезон

Все сериалы

все сериалы на PB.wtf

RePack

FAR CRY 5

Anonymous, доброе утро, мы не успеваем собрать деньги на оплату серверов за февраль, помогите нам пожалуйста в это трудное время. В качестве благодарности мы отключим Вам всю рекламу на сайте (укажите свой ник в строку Ваше имя)!

×
  
Magnet ссылка

Запрещенный / Заборонений (Роман Бровко) [2019, драма, исторический, WEB-DL 1080p] [UKR] piratbit.org

Запрещенный через торрент piratbit.org

Раздают: 1 [ 19 KB/s ]
Размер: 3.07 GB | Добавлен: 1 год 2 мес. назад | Торрент скачан:54 раза
Скачать  

04-12-2019 11:36 Запрещенный Скачать торрент  

Запрещенный / Заборонений Год выхода: 2019
Жанр: драма, исторический
Страна: Украина
Студия: UM-GROUP
Продолжительность: 01:44:54
Перевод: Оригинал (украинский язык)

Режиссер: Роман Бровко

В ролях:

Дмитрий Ярошенко, Мирослава Филиппович, Карина Шереверова, Роман Халаимов, Олег Масленников, Денис Роднянский, Диана Розовлян, Евгения Гладий и другие



О фильме:

Имя поэта Василия Семеновича Стуса знает практически каждый житель Украины: его произведения изучаются в школе. История художника пронизана невероятным трагизмом, потому что этот человек был борцом за права и национальную культуру. Автор рассказывает зрителям о последних днях жизни создателя и его смерть в советском лагере в 1985 году.

rating

Качество: WEB-DL 1080p
Формат: MKV
Видео: H.264, 1920x808, 3992 кб/с
Звук: AАС, 2.0, 192 кб/с | UKR | Оригинал

скриншот   скриншот   скриншот  
General

Unique ID : 234211601571487646855552173733493063825 (0xB03383807690CF988B8E431E9CE3C091)

Complete name : D:TorrentsFILMЗаборонений.2019.1080p.WEB-DL.mkv

Format : Matroska

Format version : Version 4

File size : 3.07 GiB

Duration : 1 h 44 min

Overall bit rate : 4 187 kb/s

Movie name : Заборонений 2019 rip by sergiyko

Encoded date : UTC 2019-12-02 19:09:25

Writing application : mkvmerge v40.0.0 ('Old Town Road + Pony') 64-bit

Writing library : libebml v1.3.9 + libmatroska v1.5.2

Cover : Yes

Attachments : cover.jpg

Video

ID : 1

Format : AVC

Format/Info : Advanced Video Codec

Format profile : High@L4

Format settings : CABAC / 3 Ref Frames

Format settings, CABAC : Yes

Format settings, Reference : 3 frames

Format settings, GOP : M=1, N=72

Codec ID : V_MPEG4/ISO/AVC

Duration : 1 h 44 min

Bit rate : 3 992 kb/s

Width : 1 920 pixels

Height : 808 pixels

Display aspect ratio : 2.40:1

Frame rate mode : Constant

Frame rate : 24.000 FPS

Color space : YUV

Chroma subsampling : 4:2:0

Bit depth : 8 bits

Scan type : Progressive

Bits/(Pixel*Frame) : 0.107

Stream size : 2.93 GiB (95%)

Language : Ukrainian

Default : Yes

Forced : No

Audio

ID : 2

Format : AAC LC

Format/Info : Advanced Audio Codec Low Complexity

Codec ID : A_AAC-2

Duration : 1 h 44 min

Bit rate : 192 kb/s

Channel(s) : 2 channels

Channel layout : L R

Sampling rate : 48.0 kHz

Frame rate : 46.875 FPS (1024 SPF)

Compression mode : Lossy

Stream size : 144 MiB (5%)

Language : Ukrainian

Default : Yes

Forced : No


piratbit.org



Скачать Запрещенный через торрент https://img16.lostpic.net/2019/12/02/f4950f168bf0f6af6b1768cd1a4f01bf.jpg Скачать фильм Запрещенный через торрент бесплантно в хорошем качестве О фильме:Имя поэта Василия Семеновича Стуса знает практически каждый житель Украины: его произведения изучаются в школе. История художника ... 8.3 10 3
Торрент: Зарегистрирован [2019-12-04 11:36] · скачан: 54 раз
Статус: √ проверено
Размер: 3.07 GB
Как cкачать? Как скачать Запрещенный через торрент | UTorrent

% Раздел Тема Автор DL S | L
Официальные cаундтреки к зарубежным фильмам [ 100 MB ] Запрещенный прием/ Заборонений прийом/ Sucker Punch2011OST - 2011 M4A 256 kbps Hoter Скачать
1 | 0

28-11-2019 20:33  

Отключить всю рекламу на сайте

    Дорогой пользователь! Огромная просьба, поблагодарите релизера, оцените раздачу и оставьте свои комментарий, если Вы скачали Запрещенный через торрент бесплатно! Внесите свою лепту в развитие PiratBit!
    Комментировать посты могут только пользователи прошедшие не сложную регистрацию
    Показать сообщения:    

    Запрещенный через торрент
    Скачать бесплатно Запрещенный
    Запрещенный скачать торрент
    Запрещенный смотреть онлайн
    Cкачать фильм Запрещенный бесплатно
    Запрещенный скачать торрент в хорошем качестве
    Запрещенный смотреть онлайн бесплатно в хорошем качестве


    Вы не можете начинать темы
    Вы не можете отвечать на сообщения
    Вы не можете редактировать свои сообщения
    Вы не можете удалять свои сообщения
    Вы не можете голосовать в опросах
    Вы не можете прикреплять файлы к сообщениям
    Вы можете скачивать файлы