новый адрес
Ссылка на приватное зеркало всего за 1$. Внимание количество ограничено!!!

iTunes

1+1

iTunes

мы

WEB-DL

1

iTunes

Чернобыль

iTunes

Ральф против интернета

Лицензия

ПШазам

Лицензия

Оно 2

Лицензия

30
pack

Вам бонус

ВАЖНО

!!Акция!!

Alien_RageХит недели

RePack

Resident Evil 21

ИГРА 18+

pack

RePack

jed

!!Акция!!

Alien_Rage

RePack

fifa19

RePack

Assassins Creed: Odyssey

RePack

NEED FOR SPEED™ PAYBACK

3 сезон

9 сезон

Бесстыжие 9 сезон

Все сериалы

все сериалы на PB.wtf

RePack

FAR CRY 5
Ребята, катастрофически не хватает 1900р. для оплаты серверов за Октябрь (всвязи с блокировками трафик упал в 3 раза), 1-2р., выручайте.
  

Война миров / The War of the Worlds / Сезон: 1 / Серии: 1-3 из 3 (Крэйг Вивейрос) [2019, фантастика, драма, WEB-DL 1080p] [MVO] (TVShows) piratbit.org

Война миров через торрент piratbit.org

Раздают: 3 [ 548 KB/s ] Качают: 2 [ 2 MB/s ]
Размер: 8.55 GB | Добавлен: 2 д. 6 ч. назад | Торрент скачан:24 раза
Скачать  

04-12-2019 16:06 Война миров Скачать торрент  

Война миров / The War of the Worlds
Год выпуска: 2019
Страна: Великобритания
Жанр: фантастика, драма
Продолжительность: ~ 00:55:00
Перевод: Профессиональный (многоголосый) *TVShows*
Субтитры: отсутствуют

Режиссер: Крэйг Вивейрос

В ролях: Рейф Сполл, Элинор Томлинсон, Филип Гаскойн, Джонатан Арис, Талия Блэр, Фрейя Аллан, Сэм Бенжамин, Роберт Карлайл, Руперт Грейвз Крэйг, Томас Ламберт и другие.

Описание: В центре истории — только начавшие совместную жизнь Джордж и Эми, которым приходится столкнуться с ужасом инопланетного вторжения.

rating скриншот  

Качество: WEB-DL 1080p
Формат: MKV
Видео: MPEG-4 AVC, 8 000 Кбит/с, 1920x1080
Аудио#1: Русский (AC3, 2 ch, 192 Кбит/с)
Аудио#2: английский (E-AC3, 2 ch, 224 Кбит/с)
скриншот  скриншот  скриншот  

General
Unique ID : 312203489940835026638266590017467569279 (0xEAE0347B0194EE66B02AE3A36649D47F)
Complete name : E:\The.War.Of.The.Worlds.S01.1080p.TVShows\The.War.Of.The.Worlds.S01E01.1080p.TVShows.mkv
Format : Matroska
Format version : Version 4 / Version 2
File size : 3.25 GiB
Duration : 54 min 30 s
Overall bit rate mode : Constant
Overall bit rate : 8 530 kb/s
Encoded date : UTC 2019-12-04 12:30:07
Writing application : mkvmerge v33.1.0 ('Primrose') 64-bit
Writing library : libebml v1.3.7 + libmatroska v1.5.0

Video
ID : 1
Format : AVC
Format/Info : Advanced Video Codec
Format profile : High@L4
Format settings : CABAC / 4 Ref Frames
Format settings, CABAC : Yes
Format settings, RefFrames : 4 frames
Codec ID : V_MPEG4/ISO/AVC
Duration : 54 min 30 s
Bit rate mode : Constant
Bit rate : 7 944 kb/s
Nominal bit rate : 10 000 kb/s
Width : 1 920 pixels
Height : 1 080 pixels
Display aspect ratio : 16:9
Frame rate mode : Constant
Frame rate : 25.000 FPS
Color space : YUV
Chroma subsampling : 4:2:0
Bit depth : 8 bits
Scan type : Progressive
Bits/(Pixel*Frame) : 0.153
Stream size : 3.02 GiB (93%)
Default : Yes
Forced : No
Color range : Limited
Color primaries : BT.709
Transfer characteristics : BT.709
Matrix coefficients : BT.709

Audio #1
ID : 2
Format : AC-3
Format/Info : Audio Coding 3
Format settings, Endianness : Big
Codec ID : A_AC3
Duration : 54 min 30 s
Bit rate mode : Constant
Bit rate : 192 kb/s
Channel(s) : 2 channels
Channel positions : Front: L R
Sampling rate : 48.0 kHz
Frame rate : 31.250 FPS (1536 SPF)
Bit depth : 16 bits
Compression mode : Lossy
Stream size : 74.9 MiB (2%)
Title : TVShows
Language : Russian
Service kind : Complete Main
Default : Yes
Forced : Yes

Audio #2
ID : 3
Format : E-AC-3
Format/Info : Enhanced Audio Coding 3
Format settings, Endianness : Big
Codec ID : A_EAC3
Duration : 54 min 30 s
Bit rate mode : Constant
Bit rate : 224 kb/s
Channel(s) : 2 channels
Channel positions : Front: L R
Sampling rate : 48.0 kHz
Frame rate : 187.500 FPS (256 SPF)
Compression mode : Lossy
Stream size : 87.3 MiB (3%)
Title : Original
Language : English
Service kind : Complete Main
Default : No
Forced : No

piratbit.org



Скачать Война миров через торрент https://a.radikal.ru/a34/1910/83/06c353f34496.jpg Скачать фильм Война миров через торрент бесплантно в хорошем качестве Описание: В центре истории — только начавшие совместную жизнь Джордж и Эми, которым приходится столкнуться с ужасом инопланетного ... 10 10 2
Торрент: Зарегистрирован [2019-12-04 16:06] · скачан: 24 раз
Статус: √ проверено
Размер: 8.55 GB
Как cкачать? Как скачать Война миров через торрент | qTorrent

% Раздел Тема Автор DL S | L
Зарубежные сериалы [ 2.49 GB ] Война миров / The War of the Worlds / Сезон: 1 / Серии: 1-3 из 3 [2019 WEB-DLRip] MVO [TVShows] bober100 Скачать
11 | 3
Зарубежные сериалы [ 8.6 GB ] Война миров / The War of the Worlds / Сезон: 1 / Серии: 1-3 из 3 [2019 WEB-DL 1080p] MVO [Lostfilm] bober100 Скачать
8 | 3

28-11-2019 20:33  

Отключить всю рекламу на сайте

    Дорогой пользователь! Огромная просьба, поблагодарите релизера, оцените раздачу и оставьте свои комментарий, если Вы скачали Война миров через торрент бесплатно! Внесите свою лепту в развитие PiratBit!
    Комментировать посты могут только пользователи прошедшие не сложную регистрацию
    Показать сообщения:    

    Война миров через торрент
    Скачать бесплатно Война миров
    Война миров скачать торрент
    Война миров смотреть онлайн
    Cкачать фильм Война миров бесплатно
    Война миров скачать торрент в хорошем качестве
    Война миров смотреть онлайн бесплатно в хорошем качестве


    Вы не можете начинать темы
    Вы не можете отвечать на сообщения
    Вы не можете редактировать свои сообщения
    Вы не можете удалять свои сообщения
    Вы не можете голосовать в опросах
    Вы не можете прикреплять файлы к сообщениям
    Вы можете скачивать файлы