новый адрес
Ссылка на приватное зеркало всего за 1$. Внимание количество ограничено!!!

iTunes

1+1

iTunes

мы

WEB-DL

1

iTunes

Чернобыль

iTunes

Ральф против интернета

Лицензия

ПШазам

Лицензия

Оно 2

Лицензия

30
pack

Вам бонус

ВАЖНО

!!Акция!!

Alien_RageХит недели

RePack

Resident Evil 21

ИГРА 18+

pack

RePack

jed

!!Акция!!

Alien_Rage

RePack

fifa19

RePack

Assassins Creed: Odyssey

RePack

NEED FOR SPEED™ PAYBACK

3 сезон

9 сезон

Бесстыжие 9 сезон

Все сериалы

все сериалы на PB.wtf

RePack

FAR CRY 5
Ребята, катастрофически не хватает 1900р. для оплаты серверов за Октябрь (всвязи с блокировками трафик упал в 3 раза), 1-2р., выручайте.
  

К звёздам / Ad Astra (Джеймс Грэй) [2019, фантастика, триллер, драма, детектив, приключения, WEB-DL 1080p] [Ukr DUB] piratbit.org

К звёздам через торрент piratbit.org

Раздают: 6 [ 186 KB/s ]
Размер: 7.95 GB | Добавлен: 2 д. 6 ч. назад | Торрент скачан:24 раза
Скачать  

04-12-2019 16:19 К звёздам Скачать торрент  

К звёздам / Ad Astra

Год выпуска: 2019
Страна: Китай, Бразилия, США
Жанр: фантастика, триллер, драма, детектив, приключения
Продолжительность: 02:05:21
Перевод: Украинский (дублированный)

Субтитры: украинские, английские

Режиссер: Джеймс Грэй

В ролях: Брэд Питт, Томми Ли Джонс, Рут Негга, Дональд Сазерленд, Кимберли Элиз, Лорен Дин, Донни Кешаварц, Шон Блейкмор, Бобби Ниш, Лиза Гэй Хэмилтон

Описание: Инженер армейского корпуса путешествует по Галактике в поисках отца, который отправился на поиски внеземной цивилизации 20 лет назад и исчез.

rating скриншот  

Качество: WEB-DL 1080p | Amazon
Формат: MKV
Видео: AVC, 1920x800 (2.40:1), 23.976 fps, 8415 kb/s
Аудио 1: AC3, 48.0 kHz, 2 ch, 192 kb/s | UKR
Аудио 2: E-AC-3, 48.0 kHz, 6 ch, 640 kb/s | ENG
скриншот  скриншот  скриншот  скриншот  

General
Unique ID : 208960963943109862637267221006800703011 (0x9D346AF2C094BED1BD6A55990A74CE23)
Complete name : Ad.Astra.2019.1080p.AMZN.WEB-DL.UKR.mkv
Format : Matroska
Format version : Version 4
File size : 7.95 GiB
Duration : 2 h 3 min
Overall bit rate : 9 246 kb/s
Encoded date : UTC 2019-12-04 12:26:01
Writing application : mkvmerge v8.3.0 ('Over the Horizon') 64bit
Writing library : libebml v1.3.1 + libmatroska v1.4.2

Video
ID : 1
Format : AVC
Format/Info : Advanced Video Codec
Format profile : High@L4
Format settings : CABAC / 4 Ref Frames
Format settings, CABAC : Yes
Format settings, ReFrames : 4 frames
Codec ID : V_MPEG4/ISO/AVC
Duration : 2 h 3 min
Bit rate mode : Constant
Bit rate : 8 415 kb/s
Nominal bit rate : 10 000 kb/s
Width : 1 920 pixels
Height : 800 pixels
Display aspect ratio : 2.40:1
Frame rate mode : Constant
Frame rate : 23.976 (24000/1001) FPS
Color space : YUV
Chroma subsampling : 4:2:0
Bit depth : 8 bits
Scan type : Progressive
Bits/(Pixel*Frame) : 0.228
Stream size : 7.23 GiB (91%)
Default : Yes
Forced : No
Color range : Limited
Color primaries : BT.709
Transfer characteristics : BT.709
Matrix coefficients : BT.709

Audio #1
ID : 2
Format : AC-3
Format/Info : Audio Coding 3
Commercial name : Dolby Digital
Codec ID : A_AC3
Duration : 2 h 3 min
Bit rate mode : Constant
Bit rate : 192 kb/s
Channel(s) : 2 channels
Channel layout : L R
Sampling rate : 48.0 kHz
Frame rate : 31.250 FPS (1536 SPF)
Bit depth : 16 bits
Compression mode : Lossy
Stream size : 169 MiB (2%)
Title : Line
Language : Ukrainian
Default : Yes
Forced : No

Audio #2
ID : 3
Format : E-AC-3
Format/Info : Enhanced AC-3
Commercial name : Dolby Digital Plus
Codec ID : A_EAC3
Duration : 2 h 3 min
Bit rate mode : Constant
Bit rate : 640 kb/s
Channel(s) : 6 channels
Channel layout : L R C LFE Ls Rs
Sampling rate : 48.0 kHz
Frame rate : 31.250 FPS (1536 SPF)
Compression mode : Lossy
Stream size : 563 MiB (7%)
Language : English
Default : No
Forced : No

Text #1
ID : 4
Format : UTF-8
Codec ID : S_TEXT/UTF8
Codec ID/Info : UTF-8 Plain Text
Duration : 2 h 2 min
Bit rate : 68 b/s
Count of elements : 1082
Stream size : 61.3 KiB (0%)
Title : Full
Language : Ukrainian
Default : No
Forced : No

Text #2
ID : 5
Format : UTF-8
Codec ID : S_TEXT/UTF8
Codec ID/Info : UTF-8 Plain Text
Duration : 2 h 0 min
Bit rate : 43 b/s
Count of elements : 1261
Stream size : 38.7 KiB (0%)
Title : Full
Language : English
Default : No
Forced : No

Text #3
ID : 6
Format : UTF-8
Codec ID : S_TEXT/UTF8
Codec ID/Info : UTF-8 Plain Text
Duration : 2 h 0 min
Bit rate : 46 b/s
Count of elements : 1396
Stream size : 41.3 KiB (0%)
Title : SDH
Language : English
Default : No
Forced : No

piratbit.org



Скачать К звёздам через торрент https://i111.fastpic.ru/big/2019/1126/76/c2952ee4ffe2c4452c1771db70e19a76.jpg Скачать фильм К звёздам через торрент бесплантно в хорошем качестве Описание: Инженер армейского корпуса путешествует по Галактике в поисках отца, который отправился на поиски внеземной цивилизации 20 лет ... 10 10 2
Торрент: Зарегистрирован [2019-12-04 16:19] · скачан: 24 раз
Статус: √ проверено
Размер: 7.95 GB
Как cкачать? Как скачать К звёздам через торрент | qTorrent

% Раздел Тема Автор DL S | L
T Фильмы [HD 720p, 1080p] (Хороший звук DUB, MVO) [ 9.2 GB ] К звёздам / Ad Astra [2019 BDRip 1080p] DUB bober100 Скачать
163 | 20
Фильмы (WEB-DL 720p, 1080p) [ 8.22 GB ] К звёздам / Ad Astra [2019 WEB-DL 1080p] [AMAZON Version] DUB bober100 Скачать
40 | 5
Фильмы [HD 720p, 1080p] (Хороший звук DUB, MVO) [ 9.6 GB ] К звёздам / Ad Astra [2019 UHD BDRip 1080p] DUB bober100 Скачать
38 | 20
Фильмы 2019 [DVDrip, WEB-DLRip, HDrip] (DUB, MVO) [ 1.86 GB ] К звёздам / Ad Astra [2019 WEB-DLRip-AVC] bober100 Скачать
92 | 3
Ultra HD (UHD: 2K, 4K, 8K) — видео сверхвысокой чёткости [ 45.17 GB ] К звёздам / Ad Astra [2019 UHD BDRemux 2160p] DUB bober100 Скачать
69 | 59
Фильмы (WEB-DL 720p, 1080p) [ 4.61 GB ] К звёздам / Ad Astra [2019 WEB-DL 720p] [AMAZON Version] DUB bober100 Скачать
65 | 15
T Фильмы [HD 720p, 1080p] (Хороший звук DUB, MVO) [ 5.92 GB ] К звёздам / Ad Astra [2019 BDRip 720p] DUB bober100 Скачать
30 | 7

28-11-2019 20:33  

Отключить всю рекламу на сайте

05-12-2019 20:09 К звёздам Скачать торрент  

Топик был перенесен из форума Фильмы с украинским озвучиванием в форум Для поглощённых раздач

Причина переноса: К звёздам / Ad Astra
bober100piratbit.org



    Дорогой пользователь! Огромная просьба, поблагодарите релизера, оцените раздачу и оставьте свои комментарий, если Вы скачали К звёздам через торрент бесплатно! Внесите свою лепту в развитие PiratBit!
    Комментировать посты могут только пользователи прошедшие не сложную регистрацию
    Показать сообщения:    

    К звёздам через торрент
    Скачать бесплатно К звёздам
    К звёздам скачать торрент
    К звёздам смотреть онлайн
    Cкачать фильм К звёздам бесплатно
    К звёздам скачать торрент в хорошем качестве
    К звёздам смотреть онлайн бесплатно в хорошем качестве


    Вы не можете начинать темы
    Вы не можете отвечать на сообщения
    Вы не можете редактировать свои сообщения
    Вы не можете удалять свои сообщения
    Вы не можете голосовать в опросах
    Вы не можете прикреплять файлы к сообщениям
    Вы можете скачивать файлы