1 сезон

3 сезон

iTunes

1

iTunes

DUB Netflix

iTunes

13

1 сезон

RePack

30

Deluxe

pack

Легкие деньги

ВАЖНО

ИГРА 18+

pack

RePack

MK11

RePack

jed

RePack

fifa19

RePack

RDR2

RePack

NEED FOR SPEED™ PAYBACK

4 сезон

9 сезон

Бесстыжие 9 сезон

Все сериалы

все сериалы на PB.wtf

RePack

FAR CRY 5

Anonymous, добрый вечер, мы не успеваем до 1 числа собрать деньги на оплату серверов, помогите нам пожалуйста в это трудное время. В качестве благодарности мы отключим Вам всю рекламу на сайте (укажите свой ник в строку Ваше имя)!

×
  
Magnet ссылка

Полицейский с Рублевки. Полицейская академия / Сезон: 5 / Серии: 1-8 из 8 (Илья Куликов) [2019, Комедия, криминал (18+), WEB-DL 720p] piratbit.org

Полицейский с Рублевки. Полицейская академия через торрент piratbit.org

Раздают: 1 [ 0 KB/s ]
Размер: 4.93 GB | Добавлен: 1 год 6 мес. назад | Торрент скачан:449 раз
Скачать  

04-12-2019 21:14 Полицейский с Рублевки. Полицейская академия Скачать торрент  

Полицейский с Рублевки. Полицейская академия
Год выпуска: 2019
Страна: Россия
Жанр: Комедия, криминал
Продолжительность: ~ 00:25:00
Перевод: Не требуется
Субтитры: отсутствуют
• Версия 18+. Внимание! Присутствует ненормативная лексика.

Режиссер: Илья Куликов

rating

В ролях: Сергей Бурунов, Роман Попов, Георгий Клинаев, Ирина Вилкова, Татьяна Бабенкова, Софья Каштанова, Ростислав Гулбис, Сергей Штатнов, Александра Бортич, Александр Дерепко, Светлана Суханова, Мария Безродная, Анна Котова, Велимир Русаков, Константин Быков

Описание: Вернувшись из отпуска, глава отдела полиции Барвихи Владимир Яковлев получает новое назначение: он становится начальником созданной на Рублёвке Академии российской полиции. Ему предстоит воспитать и обучить новое поколение полицейских, стражей закона будущего. В этом непростом деле ему помогут старые друзья и коллеги: следователь Игорь Мухич, оперативники Алиса, Олег, Саша и Дима. И все было бы прекрасно, если бы не… Гриша Измайлов.

Качество: WEB-DL 720p
Формат: MKV

Видео: MPEG4 AVC Video, H264, 2.40:1, 1280x538, 25 fps, ~3400 kbps, 0.199 bit/pixel
Аудио: AC3 Dolby Digital, 48.0 kHz, 2/0 (L,R) ch, 192 kbps
скриншот  скриншот  скриншот  скриншот  

General
Unique ID : 217599268776437144439757471722742444786 (0xA3B4184247502F9C8A45965A1CF372F2)
Complete name : D:\Polizeyskiy.S.Rublevki.S05.2019.WEB-DL.(720p).ExKinoRay\Polizeyskiy.S.Rublevki.S05.E01.2019.WEB-DL.(720p).ExKinoRay.mkv
Format : Matroska
Format version : Version 4 / Version 2
File size : 679 MiB
Duration : 25 min 44 s
Overall bit rate : 3 690 kb/s
Encoded date : UTC 2019-12-04 20:22:31
Writing application : mkvmerge v6.9.1 ('Blue Panther') 64bit built on Apr 18 2014 18:23:38
Writing library : libebml v1.3.0 + libmatroska v1.4.1

Video
ID : 1
Format : AVC
Format/Info : Advanced Video Codec
Format profile : High@L4.1
Format settings : CABAC / 9 Ref Frames
Format settings, CABAC : Yes
Format settings, ReFrames : 9 frames
Codec ID : V_MPEG4/ISO/AVC
Duration : 25 min 44 s
Bit rate : 3 425 kb/s
Width : 1 280 pixels
Height : 538 pixels
Display aspect ratio : 2.40:1
Frame rate mode : Constant
Frame rate : 25.000 FPS
Color space : YUV
Chroma subsampling : 4:2:0
Bit depth : 8 bits
Scan type : Progressive
Bits/(Pixel*Frame) : 0.199
Stream size : 630 MiB (93%)
Default : No
Forced : No
Color range : Limited
Color primaries : BT.709
Transfer characteristics : BT.709
Matrix coefficients : BT.709

Audio
ID : 2
Format : AC-3
Format/Info : Audio Coding 3
Codec ID : A_AC3
Duration : 25 min 44 s
Bit rate mode : Constant
Bit rate : 192 kb/s
Channel(s) : 2 channels
Channel positions : Front: L R
Sampling rate : 48.0 kHz
Frame rate : 31.250 FPS (1536 SPF)
Bit depth : 16 bits
Compression mode : Lossy
Stream size : 35.3 MiB (5%)
Language : Russian
Service kind : Complete Main
Default : Yes
Forced : No

Внимание! Раздача ведётся путём добавления новых серий; при каждом добавлении создаётся новый торрент. Чтобы начать докачку новой серии, пользователям необходимо сделать следующее:
(1) остановить скачивание,
(2) удалить старый торрент у себя из клиента (старые серии удалять не надо),
(3) скачать новый торрент и запустить его у себя в клиенте вместо старого, при этом указать клиенту путь в старую папку куда и должно происходить скачивание новых серий.

Ваш клиент при этом должен произвести хеширование (проверку) старой папки (если не производит сам - помогите ему сделать это), и будет докачивать только те серии которых у вас ещё нет. Старые серии при этом не удаляются, а продолжают раздаваться!

Eсли вы уже удалили старые серии, то предотвратить повторную закачку старых серий можно, отжав галочку в соответсвующих местах при запуске нового торрента. По возможности, желательно не удалять старые серии как можно дольше чтобы релизёр не столько продолжал раздавать старые серии, а смог сконцентрироваться на новых.
piratbit.org



Скачать Полицейский с Рублевки. Полицейская академия через торрент https://img15.lostpic.net/2019/12/05/dad84b4b34e488bb30db665ba0aa9f5f.jpg Скачать фильм Полицейский с Рублевки. Полицейская академия через торрент бесплантно в хорошем качестве Описание: Вернувшись из отпуска, глава отдела полиции Барвихи Владимир Яковлев получает новое назначение: он становится начальником ... 9.8 10 38
Info! Золотая раздача, скачанное не засчитывается.
Торрент: Зарегистрирован [2019-12-14 18:51] · скачан: 449 раз
Статус: √ проверено
Размер: 4.93 GB
Как cкачать? Как скачать Полицейский с Рублевки. Полицейская академия через торрент | UTorrent

% Раздел Тема Автор DL S | L
TNT serials [ 6.93 GB ] Полицейский с Рублевки. Полицейская академия / Сезон: 5 / Серии: 1-8 из 8 [2019 WEB-DL 1080p] bober100 Скачать
2 | 0


Последний раз редактировалось: bober100 (2019-12-14 18:51), всего редактировалось 12 раз(а)

28-11-2019 20:33  

Отключить всю рекламу на сайте

07-12-2019 17:43 Полицейский с Рублевки. Полицейская академия Скачать торрент  

...а он Тебе надо...??? Главное Бурунов Сергей на месте....)))) А от этого петрова уже тошнит не по детски....))))) Автору спасибо за релиз....)))))))piratbit.org



09-12-2019 02:12 Полицейский с Рублевки. Полицейская академия Скачать торрент  

спс за релиз...пошловато конечно но блин, жду каждую новую серию, оч.смешно, Бурунов это просто открытие! Комик, клоун, играет легко, убедительно, ржач до слез, даже мат...у него звучит органично...piratbit.org



    Дорогой пользователь! Огромная просьба, поблагодарите релизера, оцените раздачу и оставьте свои комментарий, если Вы скачали Полицейский с Рублевки. Полицейская академия через торрент бесплатно! Внесите свою лепту в развитие PiratBit!
    Комментировать посты могут только пользователи прошедшие не сложную регистрацию
    Показать сообщения:    

    Полицейский с Рублевки. Полицейская академия через торрент
    Скачать бесплатно Полицейский с Рублевки. Полицейская академия
    Полицейский с Рублевки. Полицейская академия скачать торрент
    Полицейский с Рублевки. Полицейская академия смотреть онлайн
    Cкачать фильм Полицейский с Рублевки. Полицейская академия бесплатно
    Полицейский с Рублевки. Полицейская академия скачать торрент в хорошем качестве
    Полицейский с Рублевки. Полицейская академия смотреть онлайн бесплатно в хорошем качестве


    Вы не можете начинать темы
    Вы не можете отвечать на сообщения
    Вы не можете редактировать свои сообщения
    Вы не можете удалять свои сообщения
    Вы не можете голосовать в опросах
    Вы не можете прикреплять файлы к сообщениям
    Вы можете скачивать файлы