Доктор Стрэндж

Лицензия

Добыча

Дубляж

Дом дракона

1 сезон

Тор

Дубляж

В эфире

Дубляж

Там, где раки поют

MVO

Властелин колец

1 сезон

Ultimate

pack

Рекомендуем

30

Пиратка

ВАЖНО

ВАЖНО

Ghostwire

Пиратка

jed

RePack

nioh2

RePack

RDR2

RePack

NEED FOR SPEED™ PAYBACK

RePack

скачать торрент

Кинопоиск HD

Острые козырьки 6 сезон

6 сезон

FAR CRY 6

RePack

скачать торрент

Лицензия

скачать торрент

MVO

1

1 сезон

скачать торрент

1 сезон

скачать торрент

Лицензия

  

Арахисовый сокол / The Peanut Butter Falcon (Тайлер Нилсон, Майк Шварц) [2019, Драма, комедия, приключения, BDRip-AVC] Дубляж [iTunes] +AVO [BadBajo]

Арахисовый сокол через торрент piratbit.org

Размер: 2.09 GB | Добавлен: 2 года 11 мес. назад | Торрент скачан:301 раз
Смотреть онлайн | Скачать   

05-12-2019 13:56 Арахисовый сокол Скачать торрент  

Арахисовый сокол / The Peanut Butter Falcon«You can't run from yourself»
Год выпуска: 2019
Страна: США
Студия: Armory Films, 1993, Lucky Treehouse
Жанр: Драма, комедия, приключения
Продолжительность: 01:36:56
Перевод: Дублированный | iTunes
Авторский | BadBajo
Субтитры: Русские (полные), английские (полные)

Режиссер: Тайлер Нилсон, Майк Шварц

rating

В ролях: Шайа ЛаБаф, Дакота Джонсон, Зак Готтзаген, Джон Хоукс, Томас Хейден Чёрч, Брюс Дерн, Джон Бернтал, Джейк Робертс, Мик Фоли

Описание: Большое путешествие начинается с шага, а легендарное — с полета. Вылетев в окно, герой очутился в мире, где чего-то не хватало. Его новому другу — крупной суммы денег. Паре головорезов — головы друга. Молодой медсестре — любви. А ему — путешествий на плоту, погонь, пылающих костров и немного арахисового масла.

Качество: BDRip-AVC
Формат: MKV

Видео: 1024x430 (2.40:1), 23,976 fps, x264 ~1 799 kbps avg, 0.170 bit/pixel
Аудио #1: 48 kHz, AC3 Dolby Digital, 3/2 (L,C,R,l,r) + LFE ch, ~384.00 kbps avg | RUS (iTunes)
Аудио #2: 48 kHz, AC3 Dolby Digital, 3/2 (L,C,R,l,r) + LFE ch, ~448.00 kbps avg | RUS (BadBajo)
Аудио #3: 48 kHz, AC3 Dolby Digital, 3/2 (L,C,R,l,r) + LFE ch, ~448.00 kbps avg | ENG
скриншот  скриншот  скриншот  скриншот  скриншот  

Общее
Уникальный идентификатор : 150957743883274648297705529697923610010 (0x71916767D68E30B3FFFF11DAB13DB59A)
Полное имя : F:\OlLanDGroup\The.Peanut.Butter.Falcon.2019.BDRip(AVC).OllanDGroup.mkv
Формат : Matroska
Версия формата : Version 4 / Version 2
Размер файла : 2,09 Гбайт
Продолжительность : 1 ч. 36 м.
Общий поток : 3080 Кбит/сек
Название фильма : The Peanut Butter Falcon 2019 #TorpedoUK#
Дата кодирования : UTC 2019-12-05 12:55:32
Программа кодирования : mkvmerge v29.0.0 ('Like It Or Not') 64-bit
Библиотека кодирования : libebml v1.3.6 + libmatroska v1.4.9

Видео
Идентификатор : 1
Формат : AVC
Формат/Информация : Advanced Video Codec
Профиль формата : High@L4.1
Параметр CABAC формата : Да
Параметр ReFrames формата : 10 кадров
Идентификатор кодека : V_MPEG4/ISO/AVC
Продолжительность : 1 ч. 36 м.
Битрейт : 1799 Кбит/сек
Ширина : 1024 пикселя
Высота : 430 пикселей
Соотношение сторон : 2,40:1
Режим частоты кадров : Постоянный
Частота кадров : 23,976 (24000/1001) кадра/сек
Цветовое пространство : YUV
Субдискретизация насыщенности : 4:2:0
Битовая глубина : 8 бит
Тип развёртки : Прогрессивная
Бит/(Пиксели*Кадры) : 0.170
Размер потока : 1,22 Гбайт (58%)
Библиотека кодирования : x264 core 146 r2538 121396c
Настройки программы : cabac=1 / ref=10 / deblock=1:-3:-3 / analyse=0x3:0x113 / me=umh / subme=11 / psy=1 / psy_rd=1.00:0.03 / mixed_ref=1 / me_range=48 / chroma_me=1 / trellis=2 / 8x8dct=1 / cqm=0 / deadzone=21,11 / fast_pskip=1 / chroma_qp_offset=-6 / threads=6 / lookahead_threads=1 / sliced_threads=0 / nr=0 / decimate=1 / interlaced=0 / bluray_compat=0 / constrained_intra=0 / bframes=11 / b_pyramid=2 / b_adapt=2 / b_bias=0 / direct=3 / weightb=1 / open_gop=0 / weightp=2 / keyint=240 / keyint_min=23 / scenecut=40 / intra_refresh=0 / rc_lookahead=40 / rc=2pass / mbtree=0 / bitrate=1799 / ratetol=1.0 / qcomp=0.60 / qpmin=0 / qpmax=69 / qpstep=4 / cplxblur=20.0 / qblur=0.5 / vbv_maxrate=50000 / vbv_bufsize=62500 / nal_hrd=none / filler=0 / ip_ratio=1.40 / pb_ratio=1.30 / aq=1:1.00
Язык : English
Default : Да
Forced : Нет

Аудио #1
Идентификатор : 2
Формат : AC-3
Формат/Информация : Audio Coding 3
Расширение режима : CM (complete main)
Параметр Endianness формата : Big
Идентификатор кодека : A_AC3
Продолжительность : 1 ч. 36 м.
Вид битрейта : Постоянный
Битрейт : 384 Кбит/сек
Каналы : 6 каналов
Расположение каналов : Front: L C R, Side: L R, LFE
Частота : 48,0 КГц
Частота кадров : 31,250 кадров/сек (1536 spf)
Битовая глубина : 16 бит
Метод сжатия : С потерями
Размер потока : 266 Мбайт (12%)
Заголовок : Дубляж [iTunes]
Язык : Russian
Default : Да
Forced : Нет

Аудио #2
Идентификатор : 3
Формат : AC-3
Формат/Информация : Audio Coding 3
Расширение режима : CM (complete main)
Параметр Endianness формата : Big
Идентификатор кодека : A_AC3
Продолжительность : 1 ч. 36 м.
Вид битрейта : Постоянный
Битрейт : 448 Кбит/сек
Каналы : 6 каналов
Расположение каналов : Front: L C R, Side: L R, LFE
Частота : 48,0 КГц
Частота кадров : 31,250 кадров/сек (1536 spf)
Битовая глубина : 16 бит
Метод сжатия : С потерями
Размер потока : 311 Мбайт (15%)
Заголовок : AVO [BadBajo]
Язык : Russian
Default : Нет
Forced : Нет

Аудио #3
Идентификатор : 4
Формат : AC-3
Формат/Информация : Audio Coding 3
Расширение режима : CM (complete main)
Параметр Endianness формата : Big
Идентификатор кодека : A_AC3
Продолжительность : 1 ч. 36 м.
Вид битрейта : Постоянный
Битрейт : 448 Кбит/сек
Каналы : 6 каналов
Расположение каналов : Front: L C R, Side: L R, LFE
Частота : 48,0 КГц
Частота кадров : 31,250 кадров/сек (1536 spf)
Битовая глубина : 16 бит
Метод сжатия : С потерями
Размер потока : 311 Мбайт (15%)
Заголовок : [Original]
Язык : English
Default : Нет
Forced : Нет

Текст #1
Идентификатор : 5
Формат : UTF-8
Идентификатор кодека : S_TEXT/UTF8
Идентификатор кодека/Информация : UTF-8 Plain Text
Продолжительность : 1 ч. 30 м.
Битрейт : 91 бит/сек
Count of elements : 1418
Размер потока : 60,5 Кбайт (0%)
Заголовок : Full
Язык : Russian
Default : Нет
Forced : Нет

Текст #2
Идентификатор : 6
Формат : UTF-8
Идентификатор кодека : S_TEXT/UTF8
Идентификатор кодека/Информация : UTF-8 Plain Text
Продолжительность : 1 ч. 35 м.
Битрейт : 67 бит/сек
Count of elements : 1549
Размер потока : 47,0 Кбайт (0%)
Заголовок : Full
Язык : English
Default : Нет
Forced : Нет

Меню
00:00:00.000 : en:Chapter 01
00:08:14.243 : en:Chapter 02
00:17:54.073 : en:Chapter 03
00:25:26.191 : en:Chapter 04
00:32:30.949 : en:Chapter 05
00:42:37.555 : en:Chapter 06
00:50:34.906 : en:Chapter 07
00:58:02.270 : en:Chapter 08
01:04:19.856 : en:Chapter 09
01:13:20.396 : en:Chapter 10
01:21:12.617 : en:Chapter 11
01:31:09.464 : en:Chapter 12




Скачать Арахисовый сокол через торрент https://c.radikal.ru/c01/1912/73/26e5e19ca4ea.jpg Скачать, смотреть онлайн Арахисовый сокол бесплантно в хорошем качестве Описание: Большое путешествие начинается с шага, а легендарное — с полета. Вылетев в окно, герой очутился в мире, где чего-то не хватало. ... 10 10 9
Торрент: Зарегистрирован [2019-12-05 13:56] · скачан: 301 раз
Статус: √ проверено
Размер: 2.09 GB
Как cкачать? Как скачать Арахисовый сокол через торрент | UTorrent

% Раздел Тема Автор DL S | L
Фильмы 2019-2020 [DVDrip, WEB-DLRip, HDrip] (DUB, MVO) [ 752 MB ] Арахисовый сокол / The Peanut Butter Falcon | Лицензия Blu-ray RUS | BDRip bober100 Скачать
3 | 0
Фильмы 2019-2020 [DVDrip, WEB-DLRip, HDrip] (DUB, MVO) [ 1.42 GB ] Арахисовый сокол / The Peanut Butter Falcon | Лицензия | BDRip Twi7ter Скачать
4 | 0
Фильмы (Blu-ray, BD-Remux, HDDVD) [ 18.31 GB ] Арахисовый сокол / The Peanut Butter Falcon | iTunes | BD Remux 1080p bober100 Скачать
2 | 0
Фильмы с авторской озвучкой [ 1.67 GB ] Арахисовый сокол / The Peanut Butter Falcon | AVO | BDRip-AVC Enigma2010 Скачать
2 | 0

28-11-2019 20:33  


Отключить вcю реклaмy на сайте, в т.ч. и в плеере онлайн просмотра!

    Дорогой пользователь! Огромная просьба, поблагодарите релизера, оцените раздачу и оставьте свои комментарий, если Вы скачали Арахисовый сокол через торрент бесплатно!!
    Комментировать посты могут только пользователи прошедшие не сложную регистрацию
    Показать сообщения:    


    Арахисовый сокол через торрент
    Скачать бесплатно Арахисовый сокол
    Арахисовый сокол скачать торрент
    Арахисовый сокол смотреть онлайн
    Cкачать фильм Арахисовый сокол бесплатно
    Арахисовый сокол скачать торрент в хорошем качестве
    Арахисовый сокол смотреть онлайн бесплатно в хорошем качестве
    Вы не можете начинать темы
    Вы не можете отвечать на сообщения
    Вы не можете редактировать свои сообщения
    Вы не можете удалять свои сообщения
    Вы не можете голосовать в опросах
    Вы не можете прикреплять файлы к сообщениям
    Вы можете скачивать файлы
    Арахисовый сокол / The Peanut Butter Falcon [2019, Драма, комедия, приключения, BDRip-AVC] Дубляж [iTunes] +AVO [BadBajo] смотреть онлайн, скачать торрент picoco.icu