Ссылка на приватное зеркало нашего сайта всего за 1$. Внимание количество ограничено!!!

2 сезон

iTunes

1 сезон

1

iTunes

iTunes

iTunes

1 сезон

RePack

30

ИГРА 18+

pack

ВАЖНО

!!Акция!!

Alien_RageХит недели

RePack

MK11
pack

Забери бонус

RePack

jed

!!Акция!!

Alien_Rage

RePack

fifa19

RePack

Assassins Creed: Odyssey

RePack

NEED FOR SPEED™ PAYBACK

4 сезон

9 сезон

Бесстыжие 9 сезон

Все сериалы

все сериалы на PB.wtf

RePack

FAR CRY 5
  

Живём один раз / You Only Live Once (Фриц Ланг) [1937, нуар, драма, криминал, BDRip 720p by msltel] MVO, DVO piratbit.org

Живём один раз через торрент piratbit.org

Размер: 3.35 GB | Добавлен: 10 мес. назад | Торрент скачан:0 раз
Скачать  

06-12-2019 05:33 Живём один раз Скачать торрент  

Название: Живём один раз
Оригинальное название: You Only Live Once
Год выпуска: 1937
Страна: США
Жанр: нуар, драма, криминал
Продолжительность: 01:26:00
Перевод: профессиональный многоголосый, профессиональный двухголосый

Режиссер: Фриц Ланг
В ролях: Сильвия Сидни, Генри Фонда, Бартон МакЛэйн, Джин Диксон, Уильям Гарган, Джером Кауэн, Чарльз «Чик» Сэйл, Маргарет Хэмилтон, Уоррен Хаймер, Гуинн «Биг бой» Уильямс, Джон Рэй, Уолтер Де Пальма, Эрл Аскем, Аллен Блэк, Стэнли Блистоун, Уорд Бонд, Вэйд Ботелер, Эл Бридж, Дон Броди, Рэймонд Браун, Джордж Бертон, Джек Карсон, Джек Читхэм, Русс Кларк, Дэвид Клайд, Ширли Коутс, Гарри Кординг, Эдгар Диаринг, Мэри Энн Даркин

О фильме: Эдди Тэйлор, осуждённый в третий раз за тяжкие преступления, выходит из тюрьмы. Но общество не благосклонно к бывшему преступнику и отвергает его: парень не может найти работу и снять нормальное жильё. Жестоким ударом судьбы становится сообщение об обнаружении шляпы с его инициалами на месте ограбления банка, где погибли шесть человек охраны. Полиция арестовывает невиновного Эдди и парню грозит пожизненное заключение - все улики против него. Герой решает бежать...



Качество: BDRip 720p
Формат: MKV
Видео: MPEG-4 AVC, 5006 Кбит/с, 988x720
Аудио 1: русский, AC3, 192 kbps, 2 ch, 48 kHz [закадровый многоголосый, DVD Land]
Аудио 2: русский, AC3, 192 kbps, 2 ch, 48 kHz [закадровый двухголосый, SDI Media Russia]
Аудио 3: английский, AC3, 192 kbps, 2 ch, 48 kHz [оригинал]
Субтитры: английские
Главы/чаптеры
Общее
Уникальный идентификатор : 226544843876665098664093514652345737546 (0xAA6EF329D1B5DB6A97B31C3FEFFCA14A)
Полное имя : D:\Video\Живём один раз.1937.BDRip 720p by msltel.mkv
Формат : Matroska
Версия формата : Version 4
Размер файла : 3,35 Гбайт
Продолжительность : 1 ч. 26 м.
Общий поток : 5584 Кбит/сек
Название фильма : Rip by msltel
Дата кодирования : UTC 2019-12-05 12:35:52
Программа кодирования : mkvmerge v8.2.0 ('World of Adventure') 64bit
Библиотека кодирования : libebml v1.3.1 + libmatroska v1.4.2

Видео
Идентификатор : 1
Формат : AVC
Формат/Информация : Advanced Video Codec
Профиль формата : High@L4.1
Настройки формата : CABAC / 9 Ref Frames
Параметр CABAC формата : Да
Параметр RefFrames формата : 9 кадров
Идентификатор кодека : V_MPEG4/ISO/AVC
Продолжительность : 1 ч. 26 м.
Битрейт : 5006 Кбит/сек
Ширина : 988 пикселей
Высота : 720 пикселей
Соотношение сторон : 1,372
Режим частоты кадров : Постоянный
Частота кадров : 24,000 кадра/сек
Цветовое пространство : YUV
Субдискретизация насыщенности : 4:2:0
Битовая глубина : 8 бит
Тип развёртки : Прогрессивная
Бит/(Пиксели*Кадры) : 0.293
Размер потока : 3,01 Гбайт (90%)
Библиотека кодирования : x264 core 157 r2935 545de2f
Настройки программы : cabac=1 / ref=9 / deblock=1:-2:-2 / analyse=0x3:0x113 / me=umh / subme=11 / psy=1 / psy_rd=1.00:0.15 / mixed_ref=1 / me_range=32 / chroma_me=1 / trellis=2 / 8x8dct=1 / cqm=0 / deadzone=21,11 / fast_pskip=0 / chroma_qp_offset=-3 / threads=6 / lookahead_threads=1 / sliced_threads=0 / nr=0 / decimate=1 / interlaced=0 / bluray_compat=0 / constrained_intra=0 / bframes=12 / b_pyramid=2 / b_adapt=2 / b_bias=0 / direct=1 / weightb=1 / open_gop=0 / weightp=2 / keyint=230 / keyint_min=23 / scenecut=40 / intra_refresh=0 / rc_lookahead=40 / rc=crf / mbtree=0 / crf=20.5 / qcomp=0.60 / qpmin=0 / qpmax=69 / qpstep=4 / vbv_maxrate=50000 / vbv_bufsize=62500 / crf_max=0.0 / nal_hrd=none / filler=0 / ip_ratio=1.40 / pb_ratio=1.30 / aq=1:1.00
Язык : English
Default : Да
Forced : Нет

Аудио #1
Идентификатор : 2
Формат : AC-3
Формат/Информация : Audio Coding 3
Коммерческое название : Dolby Digital
Идентификатор кодека : A_AC3
Продолжительность : 1 ч. 25 м.
Вид битрейта : Постоянный
Битрейт : 192 Кбит/сек
Каналы : 2 канала
ChannelLayout : L R
Частота : 48,0 КГц
Частота кадров : 31,250 кадров/сек (1536 SPF)
Метод сжатия : С потерями
Размер потока : 118 Мбайт (3%)
Заголовок : MVO DVD Land
Язык : Russian
ServiceKind/String : Complete Main
Default : Да
Forced : Нет

Аудио #2
Идентификатор : 3
Формат : AC-3
Формат/Информация : Audio Coding 3
Коммерческое название : Dolby Digital
Идентификатор кодека : A_AC3
Продолжительность : 1 ч. 25 м.
Вид битрейта : Постоянный
Битрейт : 192 Кбит/сек
Каналы : 2 канала
ChannelLayout : L R
Частота : 48,0 КГц
Частота кадров : 31,250 кадров/сек (1536 SPF)
Метод сжатия : С потерями
Размер потока : 118 Мбайт (3%)
Заголовок : DVO SDI Media Russia
Язык : Russian
ServiceKind/String : Complete Main
Default : Нет
Forced : Нет

Аудио #3
Идентификатор : 4
Формат : AC-3
Формат/Информация : Audio Coding 3
Коммерческое название : Dolby Digital
Идентификатор кодека : A_AC3
Продолжительность : 1 ч. 26 м.
Вид битрейта : Постоянный
Битрейт : 192 Кбит/сек
Каналы : 2 канала
ChannelLayout : L R
Частота : 48,0 КГц
Частота кадров : 31,250 кадров/сек (1536 SPF)
Метод сжатия : С потерями
Размер потока : 118 Мбайт (3%)
Заголовок : original
Язык : English
ServiceKind/String : Complete Main
Default : Нет
Forced : Нет

Текст
Идентификатор : 5
Формат : UTF-8
Идентификатор кодека : S_TEXT/UTF8
Идентификатор кодека/Информация : UTF-8 Plain Text
Продолжительность : 1 ч. 23 м.
Битрейт : 52 бит/сек
ElementCount : 968
Размер потока : 32,3 Кбайт (0%)
Заголовок : английские
Язык : English
Default : Нет
Forced : Нет

Меню
00:00:00.000 : en:01. Opening Titles
00:01:28.708 : en:02. I'm Gonna Miss You
00:05:43.083 : en:03. A Worthless Gorilla
00:06:49.750 : en:04. If They Let Me
00:07:58.333 : en:05. You're Here! You're Here!
00:12:40.125 : en:06. Valley Tavern
00:19:49.500 : en:07. Listen Jailbird
00:24:15.583 : en:08. It's in the Bag
00:27:38.000 : en:09. I Wanted to Go Straight
00:29:22.375 : en:10. Fifth National bank
00:32:18.667 : en:11. We Play It Your Way
00:36:11.000 : en:12. Get Me a Gun
00:40:45.125 : en:13. Electric Eye
00:43:34.667 : en:14. Tin Cup
00:50:34.750 : en:15. Breakout
01:01:35.542 : en:16. Come to Me
01:06:36.250 : en:17. On the Lam
01:10:48.875 : en:18. Something to Live For
01:15:19.792 : en:19. Cigarettes
01:20:35.125 : en:20. I'd Do It Again Darling
01:25:23.125 : en:21. End Credits
piratbit.org



Скачать Живём один раз через торрент https://b.radikal.ru/b31/1912/ab/e29334eab0d8.jpg Скачать фильм Живём один раз через торрент бесплантно в хорошем качестве О фильме: Эдди Тэйлор, осуждённый в третий раз за тяжкие преступления, выходит из тюрьмы. Но общество не благосклонно к бывшему преступнику ... 5 10 1
Торрент: Зарегистрирован [2019-12-06 05:33] · скачан: 0 раз
Статус: √ проверено
Размер: 3.35 GB
Как cкачать? Как скачать Живём один раз через торрент | qTorrent

% Раздел Тема Автор DL S | L
Классика зарубежного кино [ 8.63 GB ] Живём один раз / You Only Live Once [1937 нуар BDRip 1080p by msltel] MVO DVO msltel Скачать
1 | 0
Классика зарубежного кино [ 1.75 GB ] Живём один раз / You Only Live Once [1937 нуар BDRip by msltel] MVO DVO msltel Скачать
1 | 0

28-11-2019 20:33  

Отключить всю рекламу на сайте

    Дорогой пользователь! Огромная просьба, поблагодарите релизера, оцените раздачу и оставьте свои комментарий, если Вы скачали Живём один раз через торрент бесплатно! Внесите свою лепту в развитие PiratBit!
    Комментировать посты могут только пользователи прошедшие не сложную регистрацию
    Показать сообщения:    

    Живём один раз через торрент
    Скачать бесплатно Живём один раз
    Живём один раз скачать торрент
    Живём один раз смотреть онлайн
    Cкачать фильм Живём один раз бесплатно
    Живём один раз скачать торрент в хорошем качестве
    Живём один раз смотреть онлайн бесплатно в хорошем качестве


    Вы не можете начинать темы
    Вы не можете отвечать на сообщения
    Вы не можете редактировать свои сообщения
    Вы не можете удалять свои сообщения
    Вы не можете голосовать в опросах
    Вы не можете прикреплять файлы к сообщениям
    Вы можете скачивать файлы