Доктор Стрэндж

Лицензия

Добыча

Дубляж

Уэнсдэй

1 сезон

Тор

Дубляж

В эфире

Дубляж

Там, где раки поют

MVO

Властелин колец

1 сезон

Deluxe

pack

Рекомендуем

30

Пиратка

ВАЖНО

ВАЖНО

Ghostwire

Пиратка

jed

RePack

nioh2

RePack

RDR2

RePack

NEED FOR SPEED™ PAYBACK

RePack

скачать торрент

Кинопоиск HD

Острые козырьки 6 сезон

6 сезон

FAR CRY 6

RePack

скачать торрент

Лицензия

скачать торрент

MVO

1

1 сезон

скачать торрент

1 сезон

скачать торрент

Лицензия

  

Искусство самообороны / The Art of Self-Defense (Райли Стернс) [2019, Комедия, драма, спорт, BDRip-AVC] Дубляж [iTunes]

Искусство самообороны через торрент piratbit.org

Размер: 2.1 GB | Добавлен: 2 года 11 мес. назад | Торрент скачан:390 раз
Смотреть онлайн | Скачать   

08-12-2019 04:56 Искусство самообороны Скачать торрент  

Искусство самообороны | The Art of Self-Defense«You can't run from yourself»
Год выпуска: 2019
Страна: США
Студия: End Cue
Жанр: Комедия, драма, спорт
Продолжительность: 01:44:19
Перевод: Дублированный | iTunes
Субтитры: Русские (форс., полные), английские (полные, SDH)

Режиссер: Райли Стернс

rating

В ролях: Джесси Айзенберг, Алессандро Нивола, Имоджен Путс, Стив Терада, Филлип Андре Ботельо, Каролин Амиге, Аполло Бакала, Хауке Бахр, Джейсон Бёрки, Джастин Итон

Описание: Стеснительный 34-летний бухгалтер с женственным именем Кэйси Дэвис как-то ночью отправляется за собачьим кормом. По дороге на него совершают нападение неизвестные на мотоциклах и сильно избивают, да так, что парень несколько дней вынужден пролежать в больнице. Встав на ноги, Кэйси отправляется покупать пистолет, и пока бумаги на огнестрельное оружие проходят одобрение, решает записаться в секцию карате. Там нерешительного парня радушно привечает брутальный сэнсэй, а новый товарищ обещает, что спорт изменит его жизнь.

Качество: BDRip-AVC
Формат: MKV

Видео: 1024x552 (1.85:1), 23,976 fps, x264 ~2 047 kbps avg, 0.151 bit/pixel
Аудио#1: 48 kHz, AC3 Dolby Digital, 3/2 (L,C,R,l,r) + LFE ch, ~384.00 kbps avg | RUS (iTunes)
Аудио#2: 48 kHz, AC3 Dolby Digital, 3/2 (L,C,R,l,r) + LFE ch, ~448.00 kbps avg | ENG
скриншот  скриншот  скриншот  скриншот  скриншот  

Общее
Уникальный идентификатор : 294777593107272857433316208477643729259 (0xDDC4196EFFE51C5C460F967C0EAFE96B)
Полное имя : F:OlLanDGroupThe.Art.of.Self.Defense.2019.BDRip(AVC).OllanDGroup.mkv
Формат : Matroska
Версия формата : Version 4 / Version 2
Размер файла : 2,10 Гбайт
Продолжительность : 1 ч. 44 м.
Общий поток : 2880 Кбит/сек
Название фильма : The.Art.of.Self.Defense.2019 #TorpedoUK#
Дата кодирования : UTC 2019-12-08 03:26:08
Программа кодирования : mkvmerge v29.0.0 ('Like It Or Not') 64-bit
Библиотека кодирования : libebml v1.3.6 + libmatroska v1.4.9

Видео
Идентификатор : 1
Формат : AVC
Формат/Информация : Advanced Video Codec
Профиль формата : High@L4.1
Параметр CABAC формата : Да
Параметр ReFrames формата : 10 кадров
Идентификатор кодека : V_MPEG4/ISO/AVC
Продолжительность : 1 ч. 44 м.
Битрейт : 2047 Кбит/сек
Ширина : 1024 пикселя
Высота : 552 пикселя
Соотношение сторон : 1,85:1
Режим частоты кадров : Постоянный
Частота кадров : 23,976 (24000/1001) кадра/сек
Цветовое пространство : YUV
Субдискретизация насыщенности : 4:2:0
Битовая глубина : 8 бит
Тип развёртки : Прогрессивная
Бит/(Пиксели*Кадры) : 0.151
Размер потока : 1,49 Гбайт (71%)
Библиотека кодирования : x264 core 146 r2538 121396c
Настройки программы : cabac=1 / ref=10 / deblock=1:-2:-3 / analyse=0x3:0x113 / me=umh / subme=11 / psy=1 / psy_rd=0.90:0.10 / mixed_ref=1 / me_range=48 / chroma_me=1 / trellis=2 / 8x8dct=1 / cqm=0 / deadzone=21,11 / fast_pskip=1 / chroma_qp_offset=-6 / threads=6 / lookahead_threads=1 / sliced_threads=0 / nr=0 / decimate=1 / interlaced=0 / bluray_compat=0 / constrained_intra=0 / bframes=11 / b_pyramid=2 / b_adapt=2 / b_bias=0 / direct=3 / weightb=1 / open_gop=0 / weightp=2 / keyint=240 / keyint_min=23 / scenecut=40 / intra_refresh=0 / rc_lookahead=40 / rc=2pass / mbtree=0 / bitrate=2047 / ratetol=1.0 / qcomp=0.60 / qpmin=0 / qpmax=69 / qpstep=4 / cplxblur=20.0 / qblur=0.5 / vbv_maxrate=50000 / vbv_bufsize=62500 / nal_hrd=none / filler=0 / ip_ratio=1.40 / pb_ratio=1.30 / aq=1:1.00
Язык : English
Default : Да
Forced : Нет

Аудио #1
Идентификатор : 2
Формат : AC-3
Формат/Информация : Audio Coding 3
Расширение режима : CM (complete main)
Параметр Endianness формата : Big
Идентификатор кодека : A_AC3
Продолжительность : 1 ч. 44 м.
Вид битрейта : Постоянный
Битрейт : 384 Кбит/сек
Каналы : 6 каналов
Расположение каналов : Front: L C R, Side: L R, LFE
Частота : 48,0 КГц
Частота кадров : 31,250 кадров/сек (1536 spf)
Битовая глубина : 16 бит
Метод сжатия : С потерями
Размер потока : 286 Мбайт (13%)
Заголовок : Дубляж [iTunes]
Язык : Russian
Default : Да
Forced : Нет

Аудио #2
Идентификатор : 3
Формат : AC-3
Формат/Информация : Audio Coding 3
Расширение режима : CM (complete main)
Параметр Endianness формата : Big
Идентификатор кодека : A_AC3
Продолжительность : 1 ч. 44 м.
Вид битрейта : Постоянный
Битрейт : 448 Кбит/сек
Каналы : 6 каналов
Расположение каналов : Front: L C R, Side: L R, LFE
Частота : 48,0 КГц
Частота кадров : 31,250 кадров/сек (1536 spf)
Битовая глубина : 16 бит
Метод сжатия : С потерями
Размер потока : 334 Мбайт (16%)
Заголовок : [Original]
Язык : English
Default : Нет
Forced : Нет

Текст #1
Идентификатор : 4
Формат : UTF-8
Идентификатор кодека : S_TEXT/UTF8
Идентификатор кодека/Информация : UTF-8 Plain Text
Продолжительность : 1 ч. 39 м.
Битрейт : 2 бит/сек
Count of elements : 47
Размер потока : 1,79 Кбайт (0%)
Заголовок : Forced
Язык : Russian
Default : Да
Forced : Нет

Текст #2
Идентификатор : 5
Формат : UTF-8
Идентификатор кодека : S_TEXT/UTF8
Идентификатор кодека/Информация : UTF-8 Plain Text
Продолжительность : 1 ч. 39 м.
Битрейт : 74 бит/сек
Count of elements : 1072
Размер потока : 54,1 Кбайт (0%)
Заголовок : Full
Язык : Russian
Default : Нет
Forced : Нет

Текст #3
Идентификатор : 6
Формат : UTF-8
Идентификатор кодека : S_TEXT/UTF8
Идентификатор кодека/Информация : UTF-8 Plain Text
Продолжительность : 1 ч. 39 м.
Битрейт : 53 бит/сек
Count of elements : 1010
Размер потока : 38,7 Кбайт (0%)
Заголовок : Full
Язык : English
Default : Нет
Forced : Нет

Текст #4
Идентификатор : 7
Формат : UTF-8
Идентификатор кодека : S_TEXT/UTF8
Идентификатор кодека/Информация : UTF-8 Plain Text
Продолжительность : 1 ч. 39 м.
Битрейт : 57 бит/сек
Count of elements : 1161
Размер потока : 41,7 Кбайт (0%)
Заголовок : SDH
Язык : English
Default : Нет
Forced : Нет

Меню
00:00:00.000 : en:Chapter 01
00:05:58.108 : en:Chapter 02
00:11:27.478 : en:Chapter 03
00:16:24.901 : en:Chapter 04
00:22:05.574 : en:Chapter 05
00:27:34.862 : en:Chapter 06
00:30:49.264 : en:Chapter 07
00:37:58.526 : en:Chapter 08
00:43:38.616 : en:Chapter 09
00:47:33.059 : en:Chapter 10
00:51:34.925 : en:Chapter 11
00:57:38.955 : en:Chapter 12
01:02:57.691 : en:Chapter 13
01:09:50.311 : en:Chapter 14
01:16:10.232 : en:Chapter 15
01:20:53.682 : en:Chapter 16
01:24:42.995 : en:Chapter 17
01:30:55.450 : en:Chapter 18
01:35:38.858 : en:Chapter 19
01:39:41.350 : en:Chapter 20




Скачать Искусство самообороны через торрент https://a.radikal.ru/a12/1912/db/4099319ee342.jpg Скачать, смотреть онлайн Искусство самообороны бесплантно в хорошем качестве Описание: Стеснительный 34-летний бухгалтер с женственным именем Кэйси Дэвис как-то ночью отправляется за собачьим кормом. По дороге на ... 9.7 10 7
Торрент: Зарегистрирован [2019-12-08 04:56] · скачан: 390 раз
Статус: √ проверено
Размер: 2.1 GB
Как cкачать? Как скачать Искусство самообороны через торрент | UTorrent

% Раздел Тема Автор DL S | L
Фильмы 2019-2020 [DVDrip, WEB-DLRip, HDrip] (DUB, MVO) [ 1.46 GB ] Искусство самообороны / The Art of Self-Defense | Лицензия | BDRip Twi7ter Скачать
1 | 0
Фильмы 2019-2020 [DVDrip, WEB-DLRip, HDrip] (DUB, MVO) [ 1.41 GB ] Искусство самообороны / The Art of Self-Defense | iTunes | BDRip bober100 Скачать
1 | 0
Фильмы [HD 720p, 1080p] (Хороший звук DUB, MVO) [ 14.13 GB ] Искусство самообороны / The Art of Self-Defense | iTunes | 1080p bober100 Скачать
1 | 0
Фильмы [HD 720p, 1080p] (Хороший звук DUB, MVO) [ 6.57 GB ] Искусство самообороны / The Art of Self-Defense | iTunes | 720p bober100 Скачать
1 | 0
Фильмы (Blu-ray, BD-Remux, HDDVD) [ 26.93 GB ] Искусство самообороны / The Art of Self-Defense | iTunes | BD Remux 1080p bober100 Скачать
1 | 0

28-11-2019 20:33  


Отключить вcю реклaмy на сайте, в т.ч. и в плеере онлайн просмотра!

    Дорогой пользователь! Огромная просьба, поблагодарите релизера, оцените раздачу и оставьте свои комментарий, если Вы скачали Искусство самообороны через торрент бесплатно!!
    Комментировать посты могут только пользователи прошедшие не сложную регистрацию
    Показать сообщения:    


    Искусство самообороны через торрент
    Скачать бесплатно Искусство самообороны
    Искусство самообороны скачать торрент
    Искусство самообороны смотреть онлайн
    Cкачать фильм Искусство самообороны бесплатно
    Искусство самообороны скачать торрент в хорошем качестве
    Искусство самообороны смотреть онлайн бесплатно в хорошем качестве
    Вы не можете начинать темы
    Вы не можете отвечать на сообщения
    Вы не можете редактировать свои сообщения
    Вы не можете удалять свои сообщения
    Вы не можете голосовать в опросах
    Вы не можете прикреплять файлы к сообщениям
    Вы можете скачивать файлы
    Искусство самообороны / The Art of Self-Defense [2019, Комедия, драма, спорт, BDRip-AVC] Дубляж [iTunes] смотреть онлайн, скачать торрент picoco.icu