Ссылка на приватное зеркало нашего сайта всего за 1$. Внимание количество ограничено!!!

2 сезон

iTunes

1 сезон

1

2 сезон

2 сезон

iTunes

1 сезон

RePack

30

Ultimate

ВАЖНО

ИГРА 18+

pack

RePack

MK11
pack

Забери бонус

RePack

jed

!!Акция!!

Alien_Rage

RePack

fifa19

RePack

Assassins Creed: Odyssey

RePack

NEED FOR SPEED™ PAYBACK

4 сезон

9 сезон

Бесстыжие 9 сезон

Все сериалы

все сериалы на PB.wtf

RePack

FAR CRY 5
  

Байки из склепа / Tales from the Crypt (Фредди Фрэнсис) [1972, ужасы, триллер, драма, детектив, BDRip 720p by msltel] VO piratbit.org

Байки из склепа через торрент piratbit.org

Раздают: 1 [ 0 KB/s ]
Размер: 3.74 GB | Добавлен: 11 мес. назад | Торрент скачан:5 раз
Скачать  

08-12-2019 05:12 Байки из склепа Скачать торрент  

Название: Байки из склепа
Оригинальное название: Tales from the Crypt
Год выпуска: 1972
Страна: Великобритания
Жанр: ужасы, триллер, драма, детектив
Продолжительность: 01:32:12
Перевод: одноголосый закадровый

Режиссер: Фредди Фрэнсис
В ролях: Джоан Коллинз, Питер Кушинг, Рой Дотрис, Ричард Грин, Иэн Хендри, Патрик Мэги, Барбара Мюррэй, Найджел Патрик, Робин Филлипс, Ральф Ричардсон, Джеффри Бэйлдон, Дэвид Маркам, Роберт Хаттон, Анджела Грант, Сьюзэн Денни, Мэннинг Уилсон, Хлоя Фрэнкс, Кэй Адриан, Карлос Бэйкер

О фильме: Группа экскурсантов блуждает по катакомбам монастыря, закрытого во время правления Генриха VIII. В итоге пятеро из них натыкаются на комнату, в которой находится человек, одетый в монашескую одежду. Он говорит, что все пятеро отнюдь неслучайно попали сюда. Каждому он показывает, чем кончится его биография...



Качество: BDRip 720p
Формат: MKV
Видео: MPEG-4 AVC, 5418 Kбит/с, 1280x690, 24 кадр/с
Аудио 1: русский, AC3, 192 kbps, 2 ch, 48 kHz [закадровый одноголосый, Павел Иванов (Eraserhead)]
Аудио 2: английский, AC3, 192 kbps, 2 ch, 48 kHz [оригинал]
Субтитры: английские
Главы/чаптеры
Общее
Уникальный идентификатор : 170825804931286499906585844222460446923 (0x8083DA71CFAD952880622D3B554048CB)
Полное имя : D:\Video\Байки из склепа.1972.BDRip 720p by msltel.mkv
Формат : Matroska
Версия формата : Version 4
Размер файла : 3,74 Гбайт
Продолжительность : 1 ч. 32 м.
Общий поток : 5804 Кбит/сек
Название фильма : Rip by msltel
Дата кодирования : UTC 2019-12-07 12:40:00
Программа кодирования : mkvmerge v8.2.0 ('World of Adventure') 64bit
Библиотека кодирования : libebml v1.3.1 + libmatroska v1.4.2

Видео
Идентификатор : 1
Формат : AVC
Формат/Информация : Advanced Video Codec
Профиль формата : High@L4.1
Настройки формата : CABAC / 9 Ref Frames
Параметр CABAC формата : Да
Параметр RefFrames формата : 9 кадров
Идентификатор кодека : V_MPEG4/ISO/AVC
Продолжительность : 1 ч. 32 м.
Битрейт : 5418 Кбит/сек
Ширина : 1280 пикселей
Высота : 690 пикселей
Соотношение сторон : 1,85:1
Режим частоты кадров : Постоянный
Частота кадров : 24,000 кадра/сек
Цветовое пространство : YUV
Субдискретизация насыщенности : 4:2:0
Битовая глубина : 8 бит
Тип развёртки : Прогрессивная
Бит/(Пиксели*Кадры) : 0.256
Размер потока : 3,49 Гбайт (93%)
Библиотека кодирования : x264 core 157 r2935 545de2f
Настройки программы : cabac=1 / ref=9 / deblock=1:-2:-2 / analyse=0x3:0x113 / me=umh / subme=11 / psy=1 / psy_rd=1.00:0.15 / mixed_ref=1 / me_range=32 / chroma_me=1 / trellis=2 / 8x8dct=1 / cqm=0 / deadzone=21,11 / fast_pskip=0 / chroma_qp_offset=-3 / threads=6 / lookahead_threads=1 / sliced_threads=0 / nr=0 / decimate=1 / interlaced=0 / bluray_compat=0 / constrained_intra=0 / bframes=12 / b_pyramid=2 / b_adapt=2 / b_bias=0 / direct=1 / weightb=1 / open_gop=0 / weightp=2 / keyint=230 / keyint_min=23 / scenecut=40 / intra_refresh=0 / rc_lookahead=40 / rc=crf / mbtree=0 / crf=19.8 / qcomp=0.60 / qpmin=0 / qpmax=69 / qpstep=4 / vbv_maxrate=50000 / vbv_bufsize=62500 / crf_max=0.0 / nal_hrd=none / filler=0 / ip_ratio=1.40 / pb_ratio=1.30 / aq=1:1.00
Язык : English
Default : Да
Forced : Нет

Аудио #1
Идентификатор : 2
Формат : AC-3
Формат/Информация : Audio Coding 3
Коммерческое название : Dolby Digital
Идентификатор кодека : A_AC3
Продолжительность : 1 ч. 32 м.
Вид битрейта : Постоянный
Битрейт : 192 Кбит/сек
Каналы : 2 канала
ChannelLayout : L R
Частота : 48,0 КГц
Частота кадров : 31,250 кадров/сек (1536 SPF)
Метод сжатия : С потерями
Размер потока : 127 Мбайт (3%)
Заголовок : Павел Иванов (Eraserhead)
Язык : Russian
ServiceKind/String : Complete Main
Default : Да
Forced : Нет

Аудио #2
Идентификатор : 3
Формат : AC-3
Формат/Информация : Audio Coding 3
Коммерческое название : Dolby Digital
Идентификатор кодека : A_AC3
Продолжительность : 1 ч. 32 м.
Вид битрейта : Постоянный
Битрейт : 192 Кбит/сек
Каналы : 2 канала
ChannelLayout : L R
Частота : 48,0 КГц
Частота кадров : 31,250 кадров/сек (1536 SPF)
Метод сжатия : С потерями
Размер потока : 127 Мбайт (3%)
Заголовок : original
Язык : English
ServiceKind/String : Complete Main
Default : Нет
Forced : Нет

Текст
Идентификатор : 4
Формат : UTF-8
Идентификатор кодека : S_TEXT/UTF8
Идентификатор кодека/Информация : UTF-8 Plain Text
Продолжительность : 1 ч. 27 м.
Битрейт : 31 бит/сек
ElementCount : 612
Размер потока : 20,2 Кбайт (0%)
Заголовок : английские
Язык : English
Default : Нет
Forced : Нет

Меню
00:00:00.000 : en:00:00:00.000
00:07:48.875 : en:00:07:48.875
00:12:51.042 : en:00:12:51.042
00:18:09.542 : en:00:18:09.542
00:20:25.333 : en:00:20:25.333
00:22:44.792 : en:00:22:44.792
00:24:41.000 : en:00:24:41.000
00:28:54.625 : en:00:28:54.625
00:31:57.917 : en:00:31:57.917
00:34:42.250 : en:00:34:42.250
00:40:31.083 : en:00:40:31.083
00:45:14.500 : en:00:45:14.500
00:50:22.792 : en:00:50:22.792
00:53:18.375 : en:00:53:18.375
00:57:02.042 : en:00:57:02.042
01:00:49.000 : en:01:00:49.000
01:03:12.208 : en:01:03:12.208
01:06:16.458 : en:01:06:16.458
01:11:39.542 : en:01:11:39.542
01:14:07.917 : en:01:14:07.917
01:19:34.417 : en:01:19:34.417
01:23:06.875 : en:01:23:06.875
01:28:41.667 : en:01:28:41.667
piratbit.org



Скачать Байки из склепа через торрент https://a.radikal.ru/a03/1912/08/0eb30df897f2.jpg Скачать фильм Байки из склепа через торрент бесплантно в хорошем качестве О фильме: Группа экскурсантов блуждает по катакомбам монастыря, закрытого во время правления Генриха VIII. В итоге пятеро из них натыкаются ... 10 10 2
Торрент: Зарегистрирован [2019-12-08 05:12] · скачан: 5 раз
Статус: √ проверено
Размер: 3.74 GB
Как cкачать? Как скачать Байки из склепа через торрент | qTorrent

% Раздел Тема Автор DL S | L
Фильмы (HD 720p, 1080p) (48-60 fps) [ 4.88 GB ] Байки из склепа: Демон ночи / Tales from the Crypt: Demon Knight [1995 BDRip 720p MVO] 60fps от mimok mimok Скачать
2 | 0
Классика зарубежного кино [ 10.66 GB ] Байки из склепа / Tales from the Crypt [1972 BDRip 1080p by msltel] VO msltel Скачать
1 | 0
Классика зарубежного кино [ 2.18 GB ] Байки из склепа / Tales from the Crypt [1972 BDRip by msltel] VO msltel Скачать
1 | 0
Фильмы (Blu-ray, BD-Remux, HDDVD) [ 20.65 GB ] Байки из склепа: Кровавый бордель / Tales from the Crypt: Bordello of Blood [1996 BD Remux 1080p] MVO+AVO bober100 Скачать
1 | 0
Зарубежные сериалы [ 4.4 GB ] Байки из склепа 2 сезон / Tales from the Crypt [1990 DVDRip AVO] Тяжкий Скачать
1 | 0

28-11-2019 20:33  

Отключить всю рекламу на сайте

    Дорогой пользователь! Огромная просьба, поблагодарите релизера, оцените раздачу и оставьте свои комментарий, если Вы скачали Байки из склепа через торрент бесплатно! Внесите свою лепту в развитие PiratBit!
    Комментировать посты могут только пользователи прошедшие не сложную регистрацию
    Показать сообщения:    

    Байки из склепа через торрент
    Скачать бесплатно Байки из склепа
    Байки из склепа скачать торрент
    Байки из склепа смотреть онлайн
    Cкачать фильм Байки из склепа бесплатно
    Байки из склепа скачать торрент в хорошем качестве
    Байки из склепа смотреть онлайн бесплатно в хорошем качестве


    Вы не можете начинать темы
    Вы не можете отвечать на сообщения
    Вы не можете редактировать свои сообщения
    Вы не можете удалять свои сообщения
    Вы не можете голосовать в опросах
    Вы не можете прикреплять файлы к сообщениям
    Вы можете скачивать файлы