Достать ножи: Стеклянная луковица

MVO

Добыча

Дубляж

Уэнсдэй

1 сезон

Тор

Дубляж

13 клиническая

1 сезон

Жестокая ночь

MVO

Одни из нас

1 сезон

Deluxe

pack

Рекомендуем

30

Пиратка

ВАЖНО

ВАЖНО

Ghostwire

Пиратка

jed

RePack

nioh2

RePack

RDR2

RePack

NEED FOR SPEED™ PAYBACK

RePack

скачать торрент

Кинопоиск HD

Острые козырьки 6 сезон

6 сезон

FAR CRY 6

RePack

скачать торрент

Лицензия

скачать торрент

MVO

1

1 сезон

скачать торрент

1 сезон

скачать торрент

Лицензия

  

Рэмбо: Последняя кровь / Rambo: Last Blood (Адриан Грюнберг) [2019, боевик, триллер, приключения, вестерн, UHD BDRip 2160] [Театральная версия] Дубляж [iTunes]

Рэмбо: Последняя кровь через торрент piratbit.org

Размер: 15.49 GB | Добавлен: 3 года 2 мес. назад | Торрент скачан:121 раз
Смотреть онлайн | Скачать | Поддержите нас   

08-12-2019 13:26 Рэмбо: Последняя кровь Скачать торрент  

Рэмбо: Последняя кровь / Rambo: Last Blood
Год выпуска: 2019
Страна: США
Студия: Balboa Productions, Campbell Grobman Films, Dadi Film Group
Жанр: боевик, триллер, приключения, вестерн
Продолжительность: 01:29:28
Перевод: Дублированный | iTunes
Субтитры: отсутствуют

Режиссер: Адриан Грюнберг

rating

В ролях: Сильвестр Сталлоне, Пас Вега, Ивет Монреаль, Луис Мэндилор, Оскар Хаэнада, Шила Шах, Серхио Перис-Менчета, Джессика Мэдсен, Хоакин Косио, Адриана Барраса

Описание: Он хранил секреты всю жизнь, но пришло время взглянуть в глаза прошлому. В последний раз собраться и стать безжалостной машиной для убийства. Рэмбо снова встанет на смертельно опасный путь - путь мести, который ему придется пройти до конца.

Качество: UHD BDRip 2160 | Театральная версия
Формат: MKV

Видео: 3840x1600 at 23.976 fps, MPEG-H HEVC HDR Video, 23800 kbps avg
Аудио #01: 48 kHz, AC3, 5.1, 384 Kbps | iTunes | RUS |
Аудио #02: 48 kHz, AC3, 5.1, 640 Kbps | Оригинал | ENG |
скриншот  скриншот  скриншот  скриншот  скриншот  

Общее
Уникальный идентификатор : 124851184543288431242704983984025679866 (0x5DED76A74EC86CE322151C0A0818B7FA)
Полное имя : D:\Rambo.Last.Blood.2019.UHD.BDRip.2160p.HDR.seleZen.mkv
Формат : Matroska
Версия формата : Version 4 / Version 2
Размер файла : 15,5 Гбайт
Продолжительность : 1 ч. 29 м.
Общий поток : 24,8 Мбит/сек
Название фильма : Rambo Last Blood 2019 from селезень
Дата кодирования : UTC 2019-12-08 13:10:56
Программа кодирования : mkvmerge v40.0.0 ('Old Town Road + Pony') 64-bit
Библиотека кодирования : libebml v1.3.9 + libmatroska v1.5.2

Видео
Идентификатор : 1
Формат : HEVC
Формат/Информация : High Efficiency Video Coding
Профиль формата : Main 10@L5@Main
Идентификатор кодека : V_MPEGH/ISO/HEVC
Продолжительность : 1 ч. 29 м.
Битрейт : 23,8 Мбит/сек
Ширина : 3840 пикселей
Высота : 1600 пикселей
Соотношение сторон : 2,40:1
Режим частоты кадров : Постоянный
Частота кадров : 23,976 (24000/1001) кадра/сек
Частота кадров в оригинале : 23,976 (23976/1000) кадра/сек
Цветовое пространство : YUV
Субдискретизация насыщенности : 4:2:0
Битовая глубина : 10 бит
Бит/(Пиксели*Кадры) : 0.158
Размер потока : 14,5 Гбайт (94%)
Заголовок : CHD
Библиотека кодирования : x265 2.8+15-d693a5aa5541:[Windows][MSVC 1914][64 bit] 10bit
Настройки программы : cpuid=1111039 / frame-threads=5 / numa-pools=36 / wpp / no-pmode / no-pme / no-psnr / no-ssim / log-level=2 / input-csp=1 / input-res=3840x1600 / interlace=0 / total-frames=0 / level-idc=0 / high-tier=1 / uhd-bd=0 / ref=6 / no-allow-non-conformance / repeat-headers / annexb / no-aud / no-hrd / info / hash=0 / no-temporal-layers / no-open-gop / min-keyint=23 / keyint=250 / gop-lookahead=0 / bframes=8 / b-adapt=2 / b-pyramid / bframe-bias=0 / rc-lookahead=24 / lookahead-slices=8 / scenecut=40 / radl=0 / no-intra-refresh / ctu=64 / min-cu-size=8 / no-rect / no-amp / max-tu-size=32 / tu-inter-depth=1 / tu-intra-depth=1 / limit-tu=0 / rdoq-level=0 / dynamic-rd=0.00 / no-ssim-rd / signhide / no-tskip / nr-intra=0 / nr-inter=0 / no-constrained-intra / no-strong-intra-smoothing / max-merge=2 / limit-refs=3 / no-limit-modes / me=3 / subme=7 / merange=64 / temporal-mvp / weightp / weightb / no-analyze-src-pics / deblock=0:0 / sao / no-sao-non-deblock / rd=4 / no-early-skip / rskip / no-fast-intra / no-tskip-fast / no-cu-lossless / no-b-intra / no-splitrd-skip / rdpenalty=0 / psy-rd=2.00 / psy-rdoq=0.00 / no-rd-refine / no-lossless / cbqpoffs=0 / crqpoffs=0 / rc=crf / crf=14.0 / qcomp=0.60 / qpstep=4 / stats-write=0 / stats-read=0 / ipratio=1.40 / pbratio=1.30 / aq-mode=3 / aq-strength=1.00 / cutree / zone-count=0 / no-strict-cbr / qg-size=32 / no-rc-grain / qpmax=69 / qpmin=0 / no-const-vbv / sar=0 / overscan=0 / videoformat=5 / range=0 / colorprim=9 / transfer=16 / colormatrix=9 / chromaloc=0 / display-window=0 / master-display=G(13250,34500)B(7500,3000)R(34000,16000)WP(15635,16450)L(10000000,10) / max-cll=1000,475 / min-luma=0 / max-luma=1023 / log2-max-poc-lsb=8 / vui-timing-info / vui-hrd-info / slices=1 / no-opt-qp-pps / no-opt-ref-list-length-pps / no-multi-pass-opt-rps / scenecut-bias=0.05 / no-opt-cu-delta-qp / aq-motion / hdr / hdr-opt / no-dhdr10-opt / no-idr-recovery-sei / analysis-reuse-level=5 / scale-factor=0 / refine-intra=0 / refine-inter=0 / refine-mv=0 / no-limit-sao / ctu-info=0 / no-lowpass-dct / refine-mv-type=0 / copy-pic=1 / max-ausize-factor=1.0 / no-dynamic-refine / no-single-sei
Язык : English
Default : Да
Forced : Нет
Цветовой диапазон : Limited
Основные цвета : BT.2020
Характеристики трансфера : SMPTE ST 2084
Коэффициенты матрицы : BT.2020 non-constant
MasteringDisplay_ColorPrimaries : R: x=0.680000 y=0.320000, G: x=0.265000 y=0.690000, B: x=0.150000 y=0.060000, White point: x=0.312700 y=0.329000
MasteringDisplay_Luminance : min: 0.0010 cd/m2, max: 1000.0000 cd/m2
MaxCLL : 1000 cd/m2
MaxFALL : 475 cd/m2

Аудио #1
Идентификатор : 2
Формат : AC-3
Формат/Информация : Audio Coding 3
Расширение режима : CM (complete main)
Параметр Endianness формата : Big
Идентификатор кодека : A_AC3
Продолжительность : 1 ч. 29 м.
Вид битрейта : Постоянный
Битрейт : 384 Кбит/сек
Каналы : 6 каналов
Расположение каналов : Front: L C R, Side: L R, LFE
Частота : 48,0 КГц
Частота кадров : 31,250 кадров/сек (1536 spf)
Метод сжатия : С потерями
Размер потока : 246 Мбайт (2%)
Заголовок : iTunes
Язык : Russian
Default : Да
Forced : Да

Аудио #2
Идентификатор : 3
Формат : AC-3
Формат/Информация : Audio Coding 3
Расширение режима : CM (complete main)
Параметр Endianness формата : Big
Идентификатор кодека : A_AC3
Продолжительность : 1 ч. 29 м.
Вид битрейта : Постоянный
Битрейт : 640 Кбит/сек
Каналы : 6 каналов
Расположение каналов : Front: L C R, Side: L R, LFE
Частота : 48,0 КГц
Частота кадров : 31,250 кадров/сек (1536 spf)
Метод сжатия : С потерями
Размер потока : 410 Мбайт (3%)
Заголовок : Original
Язык : English
Default : Нет
Forced : Нет

Меню
00:00:00.000 : en:绗?01 绔?
00:04:50.081 : en:绗?02 绔?
00:10:59.158 : en:绗?03 绔?
00:14:35.791 : en:绗?04 绔?
00:22:39.024 : en:绗?05 绔?
00:25:11.718 : en:绗?06 绔?
00:31:24.382 : en:绗?07 绔?
00:36:12.253 : en:绗?08 绔?
00:41:08.299 : en:绗?09 绔?
00:46:37.878 : en:绗?10 绔?
00:49:29.967 : en:绗?11 绔?
00:55:04.926 : en:绗?12 绔?
01:00:08.229 : en:绗?13 绔?
01:05:57.495 : en:绗?14 绔?
01:12:06.280 : en:绗?15 绔?
01:17:47.287 : en:绗?16 绔?




Скачать Рэмбо: Последняя кровь через торрент https://img16.lostpic.net/2019/12/08/a1c04ff328b721e44164222ce3c3b730.jpg Скачать, смотреть онлайн Рэмбо: Последняя кровь бесплантно в хорошем качестве Описание: Он хранил секреты всю жизнь, но пришло время взглянуть в глаза прошлому. В последний раз собраться и стать безжалостной машиной ... 9.7 10 7
Info! Золотая раздача, скачанное не засчитывается.
Торрент: Зарегистрирован [2019-12-08 13:26] · скачан: 121 раз
Статус: √ проверено
Размер: 15.49 GB
Как cкачать? Как скачать Рэмбо: Последняя кровь через торрент | UTorrent

% Раздел Тема Автор DL S | L
Фильмы 2019-2020 [DVDrip, WEB-DLRip, HDrip] (DUB, MVO) [ 1.46 GB ] Рэмбо: Последняя кровь / Rambo: Last Blood | Лицензия | BDRip Twi7ter Скачать
2 | 0
Фильмы (HD 720p, 1080p) (48-60 fps) [ 3.31 GB ] Рэмбо: Последняя кровь / Rambo: Last Blood | Дубляж | 720p / 60 FPS slaventi-69 Скачать
1 | 0
Фильмы [HD 720p, 1080p] (Хороший звук DUB, MVO) [ 10.99 GB ] Рэмбо: Последняя кровь / Rambo: Last Blood | Лицензия | 1080p bober100 Скачать
1 | 0
Ultra HD (UHD: 2K, 4K, 8K) [ 46.43 GB ] Рэмбо: Последняя кровь / Rambo: Last Blood | Лицензия | 2160p, (Dolby Vision TV bober100 Скачать
1 | 0
Фильмы (Blu-ray, BD-Remux, HDDVD) [ 15.6 GB ] Рэмбо: Последняя кровь / Rambo: Last Blood | iTunes | BDRemux, (Расширенная версия Mr. Grab Скачать
1 | 0
Фильмы [HD 720p, 1080p] (Хороший звук DUB, MVO) [ 5.8 GB ] Рэмбо: Последняя кровь / Rambo: Last Blood | Лицензия | 720p bober100 Скачать
1 | 0
Ultra HD (UHD: 2K, 4K, 8K) [ 58.93 GB ] Рэмбо: Последняя кровь / Rambo: Last Blood | Лицензия | 2160p bober100 Скачать
1 | 0

28-11-2019 20:33  


Отключить вcю реклaмy на сайте, в т.ч. и в плеере онлайн просмотра!

    Дорогой пользователь! Огромная просьба, поблагодарите релизера, оцените раздачу и оставьте свои комментарий, если Вы скачали Рэмбо: Последняя кровь через торрент бесплатно!!
    Комментировать посты могут только пользователи прошедшие не сложную регистрацию
    Показать сообщения:    


    Рэмбо: Последняя кровь через торрент
    Скачать бесплатно Рэмбо: Последняя кровь
    Рэмбо: Последняя кровь скачать торрент
    Рэмбо: Последняя кровь смотреть онлайн
    Cкачать фильм Рэмбо: Последняя кровь бесплатно
    Рэмбо: Последняя кровь скачать торрент в хорошем качестве
    Рэмбо: Последняя кровь смотреть онлайн бесплатно в хорошем качестве
    Вы не можете начинать темы
    Вы не можете отвечать на сообщения
    Вы не можете редактировать свои сообщения
    Вы не можете удалять свои сообщения
    Вы не можете голосовать в опросах
    Вы не можете прикреплять файлы к сообщениям
    Вы можете скачивать файлы
    Рэмбо: Последняя кровь / Rambo: Last Blood [2019, боевик, триллер, приключения, вестерн, UHD BDRip 2160] [Театральная версия] Дубляж [iTunes] смотреть онлайн, скачать торрент picoco.icu