Достать ножи: Стеклянная луковица

MVO

Добыча

Дубляж

Уэнсдэй

1 сезон

Тор

Дубляж

13 клиническая

1 сезон

Жестокая ночь

MVO

Одни из нас

1 сезон

Deluxe

pack

Рекомендуем

30

Пиратка

ВАЖНО

ВАЖНО

Ghostwire

Пиратка

jed

RePack

nioh2

RePack

RDR2

RePack

NEED FOR SPEED™ PAYBACK

RePack

скачать торрент

Кинопоиск HD

Острые козырьки 6 сезон

6 сезон

FAR CRY 6

RePack

скачать торрент

Лицензия

скачать торрент

MVO

1

1 сезон

скачать торрент

1 сезон

скачать торрент

Лицензия

  

Пираты Карибского моря: Проклятие Черной жемчужины / Pirates of the Caribbean: The Curse of the Black Pearl (Гор Вербински) [2003, фэнтези, боевик, приключения, UHD WEB-DL 2160p] Дубляж [Лицензия]

Пираты Карибского моря: Проклятие Черной жемчужины через торрент piratbit.org

Раздают: 1 [ 398 KB/s ]
Размер: 15.99 GB | Добавлен: 3 года 1 мес. назад | Торрент скачан:365 раз
Смотреть онлайн | Скачать | Поддержите нас   

11-12-2019 01:24 Пираты Карибского моря: Проклятие Черной жемчужины Скачать торрент  

Пираты Карибского моря: Проклятие Черной жемчужины
Pirates of the Caribbean: The Curse of the Black Pearl
««Over 3000 Islands of Paradise -- For Some it's A Blessing -- For Others... It's A Curse»»

Год выпуска: 2003
Страна: США
Жанр: фэнтези, боевик, приключения
Продолжительность: 02:23:15
Перевод: Дублированный [Лицензия]
Субтитры: Русские, английские
Режиссер: Гор Вербински
В ролях:

Джонни Депп (Jack Sparrow), Джеффри Раш (Barbossa), Орландо Блум (Will Turner), Кира Найтли (Elizabeth Swann), Джек Девенпорт (Norrington), Кевин МакНэлли (Joshamee Gibbs), Джонатан Прайс (Governor Weatherby Swann), Ли Аренберг (Pintel), Макензи Крук (Ragetti), Дэвид Бэйли (Cotton), Дэмиан О’Хейр (Lt. Gillette), Джиллз Нью (Murtogg)
Описание:
Жизнь харизматичного авантюриста, капитана Джека Воробья, полная увлекательных приключений, резко меняется, когда его заклятый враг - капитан Барбосса - похищает корабль Джека, Черную Жемчужину, а затем нападает на Порт Ройал и крадет прекрасную дочь губернатора, Элизабет Свонн.
Рейтинг:

MPAA: PG-13 - Детям до 13 лет просмотр не желателен
Качество: UHD WEB-DL 2160p
Формат: MKV
Видео: HEVC HDR, 14.7 Mбит/с, 3840x1636, 23.976 Кадр/с, 10 Бит
Аудио 1: AC-3, 640 Кбит/сек, 6 канала(ов), 48,0 КГц - Дублированный / Русский
Аудио 2: AC-3, 640 Кбит/сек, 6 канала(ов), 48,0 КГц - Оригинал / Английский
Навигация по главам: есть

Общее
Уникальный идентификатор : 200935601172233458679393415424301332625 (0x972ACA03B5AEF025846429E9641FF891)
Полное имя : G:\Pirates.of.the.Caribbean.The.Curse.of.the.Black.Pearl.2003.2160p.WEB-DL.x265.10bit.HDR.Master5.mkv
Формат : Matroska
Версия формата : Version 4
Размер файла : 16,0 Гбайт
Продолжительность : 2 ч. 23 м.
Общий поток : 16,0 Мбит/сек
Название фильма : Pirates.of.the.Caribbean.The.Curse.of.the.Black.Pearl.2003.2160p.WEB-DL.x265.10bit.HDR.Master5
Дата кодирования : UTC 2019-12-10 17:47:47
Программа кодирования : mkvmerge v7.9.0 ('Birds') 64bit
Библиотека кодирования : libebml v1.3.1 + libmatroska v1.4.2

Видео
Идентификатор : 1
Формат : HEVC
Формат/Информация : High Efficiency Video Coding
Профиль формата : Main 10@L5.1@High
Идентификатор кодека : V_MPEGH/ISO/HEVC
Продолжительность : 2 ч. 23 м.
Битрейт : 14,7 Мбит/сек
Ширина : 3840 пикселей
Высота : 1636 пикселей
Соотношение сторон : 2,35:1
Режим частоты кадров : Постоянный
Частота кадров : 23,976 (24000/1001) кадра/сек
Цветовое пространство : YUV
Субдискретизация насыщенности : 4:2:0
Битовая глубина : 10 бит
Бит/(Пиксели*Кадры) : 0.098
Размер потока : 14,7 Гбайт (92%)
Заголовок : Pirates.of.the.Caribbean.The.Curse.of.the.Black.Pearl.2003.2160p.WEB-DL.x265.10bit.HDR.Master5
Библиотека кодирования : x265 3.2+9-971180b100f8:[Windows][MSVC 1923][64 bit] 10bit
Настройки программы : cpuid=1111039 / frame-threads=4 / numa-pools=28,0 / wpp / no-pmode / no-pme / no-psnr / no-ssim / log-level=2 / input-csp=1 / input-res=3840x1636 / interlace=0 / total-frames=0 / level-idc=51 / high-tier=1 / uhd-bd=0 / ref=5 / no-allow-non-conformance / repeat-headers / annexb / no-aud / no-hrd / info / hash=0 / no-temporal-layers / open-gop / min-keyint=23 / keyint=250 / gop-lookahead=0 / bframes=8 / b-adapt=2 / b-pyramid / bframe-bias=0 / rc-lookahead=40 / lookahead-slices=0 / scenecut=40 / radl=0 / no-splice / no-intra-refresh / ctu=64 / min-cu-size=8 / no-rect / no-amp / max-tu-size=32 / tu-inter-depth=3 / tu-intra-depth=3 / limit-tu=0 / rdoq-level=1 / dynamic-rd=0.00 / no-ssim-rd / signhide / no-tskip / nr-intra=0 / nr-inter=0 / no-constrained-intra / strong-intra-smoothing / max-merge=5 / limit-refs=0 / no-limit-modes / me=3 / subme=4 / merange=57 / temporal-mvp / no-frame-dup / no-hme / weightp / weightb / no-analyze-src-pics / deblock=0:0 / no-sao / no-sao-non-deblock / rd=6 / selective-sao=0 / no-early-skip / rskip / no-fast-intra / no-tskip-fast / no-cu-lossless / b-intra / no-splitrd-skip / rdpenalty=0 / psy-rd=4.00 / psy-rdoq=8.00 / no-rd-refine / no-lossless / cbqpoffs=0 / crqpoffs=0 / rc=crf / crf=15.0 / qcomp=0.60 / qpstep=4 / stats-write=0 / stats-read=0 / vbv-maxrate=160000 / vbv-bufsize=160000 / vbv-init=0.9 / crf-max=0.0 / crf-min=0.0 / ipratio=1.40 / pbratio=1.30 / aq-mode=2 / aq-strength=1.00 / cutree / zone-count=0 / no-strict-cbr / qg-size=32 / no-rc-grain / qpmax=69 / qpmin=0 / no-const-vbv / sar=0 / overscan=0 / videoformat=5 / range=0 / colorprim=9 / transfer=16 / colormatrix=9 / chromaloc=0 / display-window=0 / cll=0,0 / min-luma=0 / max-luma=1023 / log2-max-poc-lsb=8 / vui-timing-info / vui-hrd-info / slices=1 / no-opt-qp-pps / no-opt-ref-list-length-pps / no-multi-pass-opt-rps / scenecut-bias=0.05 / no-opt-cu-delta-qp / no-aq-motion / hdr / hdr-opt / no-dhdr10-opt / no-idr-recovery-sei / analysis-reuse-level=5 / scale-factor=0 / refine-intra=0 / refine-inter=0 / refine-mv=1 / refine-ctu-distortion=0 / no-limit-sao / ctu-info=0 / no-lowpass-dct / refine-analysis-type=0 / copy-pic=1 / max-ausize-factor=1.0 / no-dynamic-refine / no-single-sei / no-hevc-aq / no-svt / no-field / qp-adaptation-range=1.00
Default : Да
Forced : Нет
Цветовой диапазон : Limited
Основные цвета : BT.2020
Характеристики трансфера : PQ
Коэффициенты матрицы : BT.2020 non-constant

Аудио #1
Идентификатор : 2
Формат : AC-3
Формат/Информация : Audio Coding 3
Коммерческое название : Dolby Digital
Идентификатор кодека : A_AC3
Продолжительность : 2 ч. 23 м.
Вид битрейта : Постоянный
Битрейт : 640 Кбит/сек
Каналы : 6 каналов
Channel layout : L R C LFE Ls Rs
Частота : 48,0 КГц
Частота кадров : 31,250 кадров/сек (1536 SPF)
Битовая глубина : 16 бит
Метод сжатия : С потерями
Размер потока : 656 Мбайт (4%)
Заголовок : Дубляж
Язык : Russian
ServiceKind/String : Complete Main
Default : Да
Forced : Нет

Аудио #2
Идентификатор : 3
Формат : AC-3
Формат/Информация : Audio Coding 3
Коммерческое название : Dolby Digital
Идентификатор кодека : A_AC3
Продолжительность : 2 ч. 23 м.
Вид битрейта : Постоянный
Битрейт : 640 Кбит/сек
Каналы : 6 каналов
Channel layout : L R C LFE Ls Rs
Частота : 48,0 КГц
Частота кадров : 31,250 кадров/сек (1536 SPF)
Битовая глубина : 16 бит
Метод сжатия : С потерями
Размер потока : 656 Мбайт (4%)
Заголовок : Eng
Язык : English
ServiceKind/String : Complete Main
Default : Нет
Forced : Нет

Текст #1
Идентификатор : 4
Формат : UTF-8
Идентификатор кодека : S_TEXT/UTF8
Идентификатор кодека/Информация : UTF-8 Plain Text
Продолжительность : 2 ч. 14 м.
Битрейт : 0 бит/сек
ElementCount : 5
Размер потока : 224 байт (0%)
Заголовок : forced
Язык : Russian
Default : Да
Forced : Да

Текст #2
Идентификатор : 5
Формат : UTF-8
Идентификатор кодека : S_TEXT/UTF8
Идентификатор кодека/Информация : UTF-8 Plain Text
Продолжительность : 2 ч. 14 м.
Битрейт : 71 бит/сек
ElementCount : 1396
Размер потока : 70,8 Кбайт (0%)
Заголовок : full
Язык : Russian
Default : Нет
Forced : Нет

Текст #3
Идентификатор : 6
Формат : UTF-8
Идентификатор кодека : S_TEXT/UTF8
Идентификатор кодека/Информация : UTF-8 Plain Text
Продолжительность : 2 ч. 12 м.
Битрейт : 47 бит/сек
ElementCount : 1619
Размер потока : 46,1 Кбайт (0%)
Заголовок : full
Язык : English
Default : Нет
Forced : Нет

Меню
00:00:00.000 : en:Opening Credits/A Pirate's Life
00:08:51.281 : en:Pirates Ye Be Warned
00:16:05.548 : en:Elizabeth's Rescue
00:27:16.343 : en:The Black Pearl
00:35:59.324 : en:Welcome Aboard
00:41:02.960 : en:The Hunt
00:48:19.939 : en:Finding a Crew
00:54:01.280 : en:Aztec Gold
01:04:05.675 : en:The Treasure of Cortez
01:15:56.802 : en:Keep to the Code
01:21:21.418 : en:The Battle
01:35:00.153 : en:Stranded Again
01:40:00.745 : en:The Curse
01:48:15.614 : en:The Trojan Horse
02:02:02.190 : en:The Curse Is Lifted
02:13:09.648 : en:End Credits



Скачать Пираты Карибского моря: Проклятие Черной жемчужины через торрент https://a.radikal.ru/a23/1912/73/961fbc633636.png Скачать, смотреть онлайн Пираты Карибского моря: Проклятие Черной жемчужины бесплантно в хорошем качестве Описание: Жизнь харизматичного авантюриста, капитана Джека Воробья, полная увлекательных приключений, резко меняется, когда его заклятый ... 9.9 10 8
Info! Золотая раздача, скачанное не засчитывается.
Торрент: Зарегистрирован [2019-12-11 01:24] · скачан: 365 раз
Статус: √ проверено
Размер: 15.99 GB
Как cкачать? Как скачать Пираты Карибского моря: Проклятие Черной жемчужины через торрент | UTorrent

% Раздел Тема Автор DL S | L
Фильмы (HD 720p, 1080p) (48-60 fps) [ 4.37 GB ] Пираты Карибского моря: Проклятие Черной жемчужины / Pirates of the Caribbean: The Curse of the Black Pearl | Дубляж | 1080p, Дубляж slaventi-69 Скачать
1 | 0
Ultra HD (UHD: 2K, 4K, 8K) [ 50.85 GB ] Пираты Карибского моря: Проклятие Черной жемчужины / Pirates of the Caribbean: The Curse of the Black Pearl | Лицензия | 2160p bober100 Скачать
2 | 0
Фильмы 2001-2005 [ 2.73 GB ] Пираты Карибского моря: Проклятие Черной жемчужины / Pirates of The Caribbean: Curse of the Black Pearl | | DLRip-AVC Enigma2010 Скачать
2 | 0
Фильмы (HD 720p, 1080p) (48-60 fps) [ 6.31 GB ] Пираты Карибского моря: Проклятие Черной жемчужины / Pirates of the Caribbean: The Curse of the Black Pearl | DUB | 720p 60 fps от еnvy / NNNB еnvy Скачать
20 | 0
Фильмы [HD 720p, 1080p] (Хороший звук DUB, MVO) [ 7.76 GB ] Пираты Карибского моря: Проклятие Черной жемчужины / Pirates of the Caribbean: The Curse of the Black Pearl | Дубляж + Оригинал | 1080p, Дубляж + Оригинал Бумер Скачать
1 | 0
Фильмы с авторской озвучкой [ 2.18 GB ] Пираты Карибского моря: Проклятие Черной жемчужины / Pirates of the Caribbean: The Curse of the Black Pearl | AVO | HDRip killermax2013 Скачать
1 | 0

28-11-2019 20:33  


Отключить вcю реклaмy на сайте, в т.ч. и в плеере онлайн просмотра!

22-12-2019 09:10 Пираты Карибского моря: Проклятие Черной жемчужины Скачать торрент  

спасибо, решил пересмотреть



    Дорогой пользователь! Огромная просьба, поблагодарите релизера, оцените раздачу и оставьте свои комментарий, если Вы скачали Пираты Карибского моря: Проклятие Черной жемчужины через торрент бесплатно!!
    Комментировать посты могут только пользователи прошедшие не сложную регистрацию
    Показать сообщения:    


    Пираты Карибского моря: Проклятие Черной жемчужины через торрент
    Скачать бесплатно Пираты Карибского моря: Проклятие Черной жемчужины
    Пираты Карибского моря: Проклятие Черной жемчужины скачать торрент
    Пираты Карибского моря: Проклятие Черной жемчужины смотреть онлайн
    Cкачать фильм Пираты Карибского моря: Проклятие Черной жемчужины бесплатно
    Пираты Карибского моря: Проклятие Черной жемчужины скачать торрент в хорошем качестве
    Пираты Карибского моря: Проклятие Черной жемчужины смотреть онлайн бесплатно в хорошем качестве
    Вы не можете начинать темы
    Вы не можете отвечать на сообщения
    Вы не можете редактировать свои сообщения
    Вы не можете удалять свои сообщения
    Вы не можете голосовать в опросах
    Вы не можете прикреплять файлы к сообщениям
    Вы можете скачивать файлы
    Пираты Карибского моря: Проклятие Черной жемчужины / Pirates of the Caribbean: The Curse of the Black Pearl [2003, фэнтези, боевик, приключения, UHD WEB-DL 2160p] Дубляж [Лицензия] смотреть онлайн, скачать торрент picoco.icu