Лицензия

MVO

1

1 сезон

Лицензия

Лицензия

13

MVO

1 сезон

Deluxe Edition

pack

Рекомендуем

30

Repack

ВАЖНО

ВАЖНО

Ghostwire

RePack

jed

RePack

fifa19

RePack

RDR2

RePack

NEED FOR SPEED™ PAYBACK

RePack

Кинопоиск HD

 Острые козырьки 6 сезон

6 сезон

FAR CRY 6

RePack

Лицензия

MVO

1

1 сезон

1 сезон

Лицензия

  

Выстрел в тумане (Анатолий Бобровский, Александр Серый) [1964, СССР, детектив, шпионский, SATRip-AVC от AVP Studio]

Выстрел в тумане через торрент piratbit.org

Размер: 1.09 GB | Добавлен: 2 года 9 мес. назад | Торрент скачан:54 раза
Смотреть онлайн Выстрел в тумане | Скачать   

12-12-2019 10:23 Выстрел в тумане Скачать торрент  

Выстрел в тумане
Страна: СССР
Производство: Мосфильм

Жанр: детектив, шпионский
Год выпуска: 1964
Продолжительность: 01:21:28

Перевод: Не требуется
Cубтитры: нет
Оригинальная аудиодорожка: русский

Режиссер: Анатолий Бобровский, Александр Серый

В ролях:
Владимир Краснопольский (II), Лионелла Пырьева, Юрий Горобец, Роман Хомятов, Бруно Оя, Михаил Майоров, Владимир Колчин, Борис Кожухов, Андрей Файт, Николай Рушковский, Виктор Байков, Галина Шостко...
Об актёрах подробней

Описание:
Публикация работы молодого ученого Игоря Пантелеева произвела сенсацию. Его изысканиями заинтересовалась иностранная разведка. Вскоре имя Пантелеева исчезло со страниц газет и журналов, а в одном из НИИ появился новый сотрудник — Евдокимов…

Исходник: DVB
Качество видео: SATRip-AVC
Формат видео: MKV

Видео: 688->756x568 (4:3), 25,000 кадров/сек, H264 ~ 1720 kbps avg, 0.176 bit/pixel
Аудио: 48 kHz, Dolby Digital AC3 2.0, 192 kbps

Раздача от:
Общее
Полное имя : Vystrel.v.tumane.1964.SATRip-AVC_[New-team]_by_AVP_Studio.mkv
Формат : Matroska
Версия формата : Version 2
Размер файла : 1,09 Гбайт
Продолжительность : 1 ч. 21 м.
Общий поток : 1914 Кбит/сек
Дата кодирования : UTC 2019-12-09 19:53:16
Программа кодирования : mkvmerge v6.1.0 ('Old Devil') built on Mar 4 2013 09:10:42
Библиотека кодирования : libebml v1.3.0 + libmatroska v1.4.0

Видео
Идентификатор : 1
Формат : AVC
Формат/Информация : Advanced Video Codec
Профиль формата : High@L4.1
Настройки формата : CABAC / 10 Ref Frames
Параметр CABAC формата : Да
Параметр RefFrames формата : 10 кадров
Идентификатор кодека : V_MPEG4/ISO/AVC
Продолжительность : 1 ч. 21 м.
Битрейт : 1720 Кбит/сек
Ширина : 688 пикселей
Высота : 568 пикселей
Соотношение сторон : 4:3
Режим частоты кадров : Постоянный
Частота кадров : 25,000 кадров/сек
Цветовое пространство : YUV
Субдискретизация насыщенности : 4:2:0
Битовая глубина : 8 бит
Тип развёртки : Прогрессивная
Бит/(Пиксели*Кадры) : 0.176
Размер потока : 981 Мбайт (88%)
Библиотека кодирования : x264 core 157 r2932 303c484
Настройки программы : cabac=1 / ref=10 / deblock=1:-2:-1 / analyse=0x3:0x113 / me=umh / subme=10 / psy=1 / psy_rd=1.00:0.00 / mixed_ref=1 / me_range=32 / chroma_me=1 / trellis=2 / 8x8dct=1 / cqm=0 / deadzone=21,11 / fast_pskip=1 / chroma_qp_offset=-2 / threads=6 / lookahead_threads=1 / sliced_threads=0 / nr=0 / decimate=0 / interlaced=0 / bluray_compat=0 / constrained_intra=0 / bframes=8 / b_pyramid=2 / b_adapt=2 / b_bias=0 / direct=3 / weightb=1 / open_gop=0 / weightp=2 / keyint=250 / keyint_min=25 / scenecut=40 / intra_refresh=0 / rc=2pass / mbtree=0 / bitrate=1720 / ratetol=1.0 / qcomp=0.60 / qpmin=0 / qpmax=69 / qpstep=4 / cplxblur=20.0 / qblur=0.5 / ip_ratio=1.40 / pb_ratio=1.30 / aq=1:1.00
Default : Да
Forced : Нет

Аудио
Идентификатор : 2
Формат : AC-3
Формат/Информация : Audio Coding 3
Коммерческое название : Dolby Digital
Идентификатор кодека : A_AC3
Продолжительность : 1 ч. 21 м.
Вид битрейта : Постоянный
Битрейт : 192 Кбит/сек
Каналы : 2 канала
ChannelLayout : L R
Частота : 48,0 КГц
Частота кадров : 31,250 кадров/сек (1536 SPF)
Битовая глубина : 16 бит
Метод сжатия : С потерями
Размер потока : 112 Мбайт (10%)
Default : Да
Forced : Нет



Скачать Выстрел в тумане через торрент http://c.radikal.ru/c39/1912/52/8fcebc4a3246.png Скачать, смотреть онлайн Выстрел в тумане бесплантно в хорошем качестве Описание:Публикация работы молодого ученого Игоря Пантелеева произвела сенсацию. Его изысканиями заинтересовалась иностранная разведка. ... 10 10 2
Торрент: Зарегистрирован [2019-12-12 10:23] · скачан: 54 раз
Статус: √ проверено
Размер: 1.09 GB
Как cкачать? Как скачать Выстрел в тумане через торрент | UTorrent

% Раздел Тема Автор DL S | L
Кино СССР [ 1.09 GB ] Выстрел в тумане | | SATRip от AVP Studio AVP Studio Скачать
1 | 1

28-11-2019 20:33  

Отключить вcю реклaмy на сайте

    Дорогой пользователь! Огромная просьба, поблагодарите релизера, оцените раздачу и оставьте свои комментарий, если Вы скачали Выстрел в тумане через торрент бесплатно!!
    Комментировать посты могут только пользователи прошедшие не сложную регистрацию
    Показать сообщения:    


    Выстрел в тумане через торрент
    Скачать бесплатно Выстрел в тумане
    Выстрел в тумане скачать торрент
    Выстрел в тумане смотреть онлайн
    Cкачать фильм Выстрел в тумане бесплатно
    Выстрел в тумане скачать торрент в хорошем качестве
    Выстрел в тумане смотреть онлайн бесплатно в хорошем качестве
    Вы не можете начинать темы
    Вы не можете отвечать на сообщения
    Вы не можете редактировать свои сообщения
    Вы не можете удалять свои сообщения
    Вы не можете голосовать в опросах
    Вы не можете прикреплять файлы к сообщениям
    Вы можете скачивать файлы